<?xml version="1.0" standalone="no"?>
<!DOCTYPE svg PUBLIC "-//W3C//DTD SVG 1.1//EN" "http://www.w3.org/Graphics/SVG/1.1/DTD/svg11.dtd" >
<svg xmlns="http://www.w3.org/2000/svg" xmlns:xlink="http://www.w3.org/1999/xlink" version="1.1">
<metadata>
Created by FontForge 20170731 at Sun Jun 12 09:27:54 2022
 By Aleksey,,,
Copyright (c) 2019 by Nick Losacco. All rights reserved.
</metadata>
<defs>
<font id="Telegraf-UltraLight" horiz-adv-x="0" >
  <font-face 
    font-family="Telegraf UltraLight"
    font-weight="200"
    font-stretch="normal"
    units-per-em="2048"
    panose-1="0 0 3 0 0 0 0 0 0 0"
    ascent="1638"
    descent="-410"
    x-height="1024"
    cap-height="1362"
    bbox="-850 -498 2542 2005"
    underline-thickness="61"
    underline-position="-224"
    unicode-range="U+0020-25CF"
  />
<missing-glyph horiz-adv-x="921" 
d="M756 1434v-1844h-584v1844h584zM614 1311h-305v-62h121v-67h-123v-62h307v62h-122v67h122v62zM492 1073h-185v-192h307v63h-122v129zM430 1010v-66h-61v66h61zM614 831h-307v-61h123v-68h-123v-61h185v129h122v61zM614 721h-61v-123h-246v-61h307v184zM614 496h-184v-103
h62v41h61v-86h-184v148h-62v-209h307v209zM614 176h-307v-209h307v209zM553 117v-88h-184v88h184zM614 -74h-307v-61h129l-129 -86v-62h307v62h-188l129 86h59v61z" />
    <glyph glyph-name="f_f" unicode="ff" horiz-adv-x="1257" 
d="M1257 1364h-374v-340h327v-70h-325v-954h-82v954h-496v-954h-82v954h-164v60l164 10v295q0 61 27.5 88t95.5 27h305v-70h-348v-340h498v295q0 61 27.5 88t95.5 27h331v-70z" />
    <glyph glyph-name="f_f_i" unicode="ffi" horiz-adv-x="1617" 
d="M926 1434h547v-70h-590v-340h327v-70h-325v-954h-82v954h-496v-954h-82v954h-164v60l164 10v295q0 61 27.5 88t95.5 27h305v-70h-348v-340h498v295q0 61 27.5 88t95.5 27zM1391 0v1024h82v-1024h-82z" />
    <glyph glyph-name="f_f_l" unicode="ffl" horiz-adv-x="1644" 
d="M1489 1434v-1434h-82v1364h-524v-340h317v-70h-315v-954h-82v954h-496v-954h-82v954h-164v60l164 10v295q0 61 27.5 88t95.5 27h305v-70h-348v-340h498v295q0 61 27.5 88t95.5 27h563z" />
    <glyph glyph-name="f_i" unicode="fi" horiz-adv-x="1060" 
d="M225 0v954h-164v60l164 10v295q0 61 27.5 88t95.5 27h547v-70h-590v-340h328v-70h-326v-954h-82zM813 0v1024h82v-1024h-82z" />
    <glyph glyph-name="f_l" unicode="fl" horiz-adv-x="1067" 
d="M911 1434v-1434h-82v1364h-524v-340h318v-70h-316v-954h-82v954h-164v60l164 10v295q0 61 27.5 88t95.5 27h563z" />
    <glyph glyph-name=".notdef" horiz-adv-x="921" 
d="M756 1434v-1844h-584v1844h584zM614 1311h-305v-62h121v-67h-123v-62h307v62h-122v67h122v62zM492 1073h-185v-192h307v63h-122v129zM430 1010v-66h-61v66h61zM614 831h-307v-61h123v-68h-123v-61h185v129h122v61zM614 721h-61v-123h-246v-61h307v184zM614 496h-184v-103
h62v41h61v-86h-184v148h-62v-209h307v209zM614 176h-307v-209h307v209zM553 117v-88h-184v88h184zM614 -74h-307v-61h129l-129 -86v-62h307v62h-188l129 86h59v61z" />
    <glyph glyph-name=".null" 
 />
    <glyph glyph-name="nonmarkingreturn" horiz-adv-x="682" 
 />
    <glyph glyph-name="space" unicode=" " horiz-adv-x="376" 
 />
    <glyph glyph-name="exclam" unicode="!" horiz-adv-x="323" 
d="M133 399l-12 963h82l-13 -963h-57zM86 0v150h152v-150h-152z" />
    <glyph glyph-name="quotedbl" unicode="&#x22;" horiz-adv-x="493" 
d="M66 1362h120l-20 -379h-80zM307 1362h121l-20 -379h-80z" />
    <glyph glyph-name="numbersign" unicode="#" horiz-adv-x="1740" 
d="M1638 954h-393l-147 -473h428v-69h-449l-129 -412h-71l129 412h-498l-129 -412h-72l129 412h-334v69h355l147 473h-389v70h412l104 338h72l-105 -338h498l104 338h72l-104 -338h370v-70zM1026 481l148 473h-498l-148 -473h498z" />
    <glyph glyph-name="dollar" unicode="$" horiz-adv-x="1056" 
d="M946 426q0 -145 -95.5 -215.5t-289.5 -73.5v-209h-82v211q-365 25 -385 375h76q7 -69 25 -119.5t57.5 -95t111.5 -67.5t177 -23q169 0 246 49t77 160q0 104 -58.5 155.5t-189.5 69.5l-204 27q-285 36 -285 268q0 125 93.5 203.5t258.5 87.5v205h82v-207
q173 -10 262.5 -99t98.5 -231h-76q-4 53 -22 96.5t-54.5 82t-102 60t-153.5 21.5q-153 0 -229 -57.5t-76 -161.5q0 -172 211 -197l211 -26q157 -20 236 -86.5t79 -202.5z" />
    <glyph glyph-name="percent" unicode="%" horiz-adv-x="1605" 
d="M102 0v25l1321 1265h-729v-444h-526v516h1268q67 0 67 -57q0 -41 -33 -72l-1294 -1233h-74zM250 918h364v372h-364v-372zM940 0v516h526v-516h-526zM1022 72h364v374h-364v-374z" />
    <glyph glyph-name="ampersand" unicode="&#x26;" horiz-adv-x="1607" 
d="M1516 627h-259q-12 -242 -104 -396l238 -208l-56 -60l-227 201q-158 -197 -469 -197q-215 0 -345 103.5t-130 269.5q0 137 80 223.5t231 149.5l12 4q-85 87 -129.5 169t-44.5 177q0 145 95.5 236.5t287.5 91.5q182 0 271.5 -84t89.5 -217q0 -66 -25 -120t-74.5 -96.5
t-104 -74t-132.5 -64.5l-94 -41l65 -57l400 -352q76 135 86 317q6 103 100 103h238v-78zM406 1063q0 -95 40 -167t119 -146l131 55q65 27 107.5 50t82.5 55.5t59.5 75.5t19.5 97q0 234 -269 234q-290 0 -290 -254zM655 41q253 0 392 176l-424 375q-12 10 -25 22t-28 26
t-23 22l-19 -9q-141 -60 -206.5 -129t-65.5 -184q0 -137 103 -218t296 -81z" />
    <glyph glyph-name="quotesingle" unicode="'" horiz-adv-x="251" 
d="M66 1362h120l-20 -379h-80z" />
    <glyph glyph-name="parenleft" unicode="(" horiz-adv-x="595" 
d="M82 580q0 179 34 338.5t93.5 282t134 214.5t162.5 154l29 -41q-361 -305 -361 -948q0 -644 361 -949l-29 -41q-88 62 -162.5 154.5t-134 215t-93.5 282t-34 338.5z" />
    <glyph glyph-name="parenright" unicode=")" horiz-adv-x="595" 
d="M514 580q0 -179 -34 -338.5t-93.5 -282t-134 -215t-162.5 -154.5l-29 41q361 305 361 949q0 643 -361 948l29 41q88 -62 162.5 -154t134 -214.5t93.5 -282t34 -338.5z" />
    <glyph glyph-name="asterisk" unicode="*" horiz-adv-x="706" 
d="M57 1163l47 82l246 -186l-43 303h92l-43 -303l246 186l45 -82l-282 -114l284 -117l-47 -82l-246 186l43 -303h-92l43 303l-246 -186l-45 82l283 117z" />
    <glyph glyph-name="plus" unicode="+" horiz-adv-x="983" 
d="M901 543v-70h-373v-371h-73v371h-373v70h373v379h73v-379h373z" />
    <glyph glyph-name="comma" unicode="," horiz-adv-x="282" 
d="M66 25v125h151v-236q0 -86 -27.5 -114.5t-113.5 -28.5h-10v82h79v172h-79z" />
    <glyph glyph-name="hyphen" unicode="-" horiz-adv-x="983" 
d="M82 543h819v-70h-819v70z" />
    <glyph glyph-name="period" unicode="." horiz-adv-x="282" 
d="M66 0v150h151v-150h-151z" />
    <glyph glyph-name="slash" unicode="/" horiz-adv-x="546" 
d="M31 0l424 1362h71l-424 -1362h-71z" />
    <glyph glyph-name="zero" unicode="0" horiz-adv-x="1323" 
d="M662 -35q-281 0 -430.5 193.5t-149.5 525.5q0 215 64 374.5t196 250t320 90.5q187 0 319 -91t196 -250t64 -374q0 -217 -64 -377.5t-195.5 -251t-319.5 -90.5zM174 684q0 -322 124.5 -483.5t363.5 -161.5t363 161.5t124 483.5q0 321 -124 481t-363 160t-363.5 -160
t-124.5 -481z" />
    <glyph glyph-name="one" unicode="1" horiz-adv-x="864" 
d="M117 0v78h321v1206h-325v78h288q68 0 95.5 -27t27.5 -88v-1169h297v-78h-704z" />
    <glyph glyph-name="two" unicode="2" horiz-adv-x="1210" 
d="M133 0v78l635 573q127 115 177 197t50 190q0 131 -88.5 209t-255.5 78q-213 0 -318.5 -118t-111.5 -382h-86q6 295 140 434.5t372 139.5q110 0 196 -28.5t138.5 -78.5t79 -114t26.5 -138q0 -122 -63.5 -222.5t-214.5 -242.5l-555 -497h864v-78h-985z" />
    <glyph glyph-name="three" unicode="3" horiz-adv-x="1232" 
d="M82 444h92q2 -53 16 -106t46 -108t78.5 -96.5t120.5 -68t165 -26.5q218 0 328 101.5t110 277.5q0 164 -85 259t-244 95q-76 0 -131.5 -13t-122.5 -48l-43 59l577 514h-844v78h947v-78l-527 -475q74 20 156 20q187 0 298 -111.5t111 -295.5q0 -74 -19.5 -141t-61.5 -125
t-103.5 -100.5t-150 -66.5t-195.5 -24q-125 0 -224.5 40t-162 108t-96 152.5t-35.5 178.5z" />
    <glyph glyph-name="four" unicode="4" horiz-adv-x="1216" 
d="M934 455h233v-74h-233v-381h-86v381h-768v74l713 907h141v-907zM174 455h674v845z" />
    <glyph glyph-name="five" unicode="5" horiz-adv-x="1239" 
d="M678 897q217 0 334.5 -127t117.5 -326q0 -81 -16 -150t-53.5 -130.5t-95 -105t-145.5 -68.5t-199 -25q-250 0 -377 108t-138 306h93q13 -166 111.5 -253t310.5 -87q111 0 193.5 31.5t130 89t70.5 129.5t23 160q0 177 -94.5 279.5t-275.5 102.5q-124 0 -225.5 -46.5
t-196.5 -159.5h-80l37 737h866v-78h-784l-33 -582q160 195 426 195z" />
    <glyph glyph-name="six" unicode="6" horiz-adv-x="1202" 
d="M647 846q99 0 184 -28.5t148.5 -82.5t100 -138t36.5 -189q0 -90 -29.5 -168t-87.5 -140.5t-154.5 -98.5t-219.5 -36q-258 0 -390.5 162.5t-132.5 515.5q0 171 34 308.5t102 238t174.5 155t246.5 54.5q207 0 317 -105t132 -282h-92q-17 154 -113 233.5t-250 79.5
q-477 0 -477 -772v-25q50 140 170 229t301 89zM623 39q200 0 300.5 99.5t100.5 269.5q0 78 -22.5 143.5t-68 117t-122.5 80.5t-178 29q-110 0 -206 -44.5t-156 -128.5t-60 -189q0 -175 112 -276t300 -101z" />
    <glyph glyph-name="seven" unicode="7" horiz-adv-x="1024" 
d="M10 1284v78h983v-78q-141 -135 -242 -267t-178.5 -287.5t-116 -337t-38.5 -392.5h-86q0 392 143 700.5t430 583.5h-895z" />
    <glyph glyph-name="eight" unicode="8" horiz-adv-x="1228" 
d="M614 -33q-127 0 -225.5 30.5t-159.5 84.5t-92 124t-31 154q0 67 18.5 122t48.5 92.5t74.5 67t89.5 47t101 30.5q-145 37 -220 120t-75 205q0 154 124.5 254.5t346.5 100.5t346.5 -100.5t124.5 -254.5q0 -120 -75.5 -203t-218.5 -120q71 -18 125.5 -43t103.5 -66
t75.5 -105t26.5 -147q0 -173 -129.5 -283t-378.5 -110zM614 750q99 0 175 26t119 69.5t64 92.5t21 102q0 129 -98 207t-281 78t-280.5 -78t-97.5 -207q0 -42 12.5 -81.5t41.5 -78t71.5 -67t107.5 -46t145 -17.5zM614 41q208 0 312 90.5t104 224.5q0 159 -105 240.5
t-311 81.5t-310.5 -81.5t-104.5 -240.5q0 -64 24 -119t72 -99.5t130 -70.5t189 -26z" />
    <glyph glyph-name="nine" unicode="9" horiz-adv-x="1202" 
d="M578 1399q258 0 390 -162.5t132 -515.5q0 -171 -34 -308.5t-102 -238t-174.5 -155t-246.5 -54.5q-207 0 -317 105t-132 282h92q17 -154 113 -233.5t250 -79.5q477 0 477 772v25q-50 -140 -170 -229t-301 -89q-99 0 -184 28.5t-148.5 82.5t-100 138t-36.5 189q0 90 30 168
t88 140.5t154.5 98.5t219.5 36zM569 586q110 0 206 44.5t156 128.5t60 189q0 175 -111.5 276t-299.5 101q-200 0 -301 -99.5t-101 -269.5q0 -78 22.5 -143.5t68 -117t122.5 -80.5t178 -29z" />
    <glyph glyph-name="colon" unicode=":" horiz-adv-x="282" 
d="M66 874v150h151v-150h-151zM66 0v150h151v-150h-151z" />
    <glyph glyph-name="semicolon" unicode=";" horiz-adv-x="282" 
d="M66 874v150h151v-150h-151zM66 25v125h151v-236q0 -86 -27.5 -114.5t-113.5 -28.5h-10v82h79v172h-79z" />
    <glyph glyph-name="less" unicode="&#x3c;" horiz-adv-x="835" 
d="M692 844v-82l-575 -242l575 -244v-81l-631 266v117z" />
    <glyph glyph-name="equal" unicode="=" horiz-adv-x="716" 
d="M51 707h615v-70h-615v70zM51 379h615v-70h-615v70z" />
    <glyph glyph-name="greater" unicode="&#x3e;" horiz-adv-x="753" 
d="M61 844l631 -266v-117l-631 -266v81l576 244l-576 242v82z" />
    <glyph glyph-name="question" unicode="?" horiz-adv-x="1193" 
d="M508 547v78h92q115 0 198 30.5t127.5 83.5t64.5 113t20 131q0 144 -96.5 243t-262.5 99q-116 0 -200 -31.5t-132.5 -90t-73 -130.5t-30.5 -166h-82q9 229 137 360.5t377 131.5q111 0 200 -35.5t143.5 -94.5t83 -132t28.5 -152q0 -87 -28 -163t-86 -139t-159 -99.5
t-235 -36.5h-86zM543 0v150h151v-150h-151z" />
    <glyph glyph-name="at" unicode="@" horiz-adv-x="1961" 
d="M1047 -332q-190 0 -347.5 45t-267 123.5t-185 187t-110.5 233.5t-35 265q0 184 59.5 343.5t170.5 278.5t282 187t383 68q208 0 372.5 -54.5t271.5 -154t163 -237.5t56 -306q0 -259 -104 -404t-310 -145h-182l-4 187q-77 -187 -322 -187q-180 0 -272.5 118t-92.5 331
q0 211 92.5 328.5t272.5 117.5q117 0 199.5 -52.5t122.5 -133.5v158h81v-795h107q89 0 153.5 36t101.5 102t54 150t17 189q0 146 -49 269t-143 215t-244 144t-341 52q-196 0 -351.5 -62.5t-254.5 -172t-151 -255t-52 -315.5q0 -127 32.5 -241.5t101.5 -213.5t168.5 -171.5
t241.5 -114t312 -41.5h353v-72h-350zM952 170q144 0 226 96t82 281q0 186 -81.5 280.5t-226.5 94.5q-143 0 -218 -93.5t-75 -281.5q0 -187 75.5 -282t217.5 -95z" />
    <glyph glyph-name="A" unicode="A" horiz-adv-x="1361" 
d="M1190 0l-158 397h-704l-158 -397h-88l539 1362h120l539 -1362h-90zM356 471h648l-324 819z" />
    <glyph glyph-name="B" unicode="B" horiz-adv-x="1306" 
d="M924 707q50 -6 94.5 -27.5t82.5 -61.5t60.5 -106t22.5 -152q0 -360 -396 -360h-634v1362h618q110 0 186.5 -25.5t118 -74t59 -108.5t17.5 -140q0 -268 -229 -307zM764 1288h-524v-545h512q164 0 236.5 69.5t72.5 201.5q0 149 -65 211.5t-232 62.5zM791 74q167 0 234 71.5
t67 223.5q0 147 -77 223t-249 76h-526v-594h551z" />
    <glyph glyph-name="C" unicode="C" horiz-adv-x="1511" 
d="M774 -35q-323 0 -492 193t-169 526q0 330 169 522.5t492 192.5q286 0 443.5 -144t187.5 -407h-88q-24 245 -161 361t-382 116q-569 0 -569 -641q0 -645 569 -645q254 0 394.5 135.5t152.5 394.5h88q-8 -133 -50.5 -242t-119.5 -190.5t-195.5 -126.5t-269.5 -45z" />
    <glyph glyph-name="D" unicode="D" horiz-adv-x="1413" 
d="M666 1362q132 0 237.5 -34.5t177 -95.5t119 -147t69 -185.5t21.5 -215.5q0 -118 -21.5 -218.5t-69 -187.5t-119 -148t-177 -95.5t-237.5 -34.5h-512v1362h512zM659 74q121 0 214 29.5t154 81.5t99.5 129.5t55 167.5t16.5 202q0 140 -26.5 246t-87 189t-167.5 126t-258 43
h-419v-1214h419z" />
    <glyph glyph-name="E" unicode="E" horiz-adv-x="1263" 
d="M240 74h884v-74h-970v1362h964v-74h-878v-543h817v-73h-817v-598z" />
    <glyph glyph-name="F" unicode="F" horiz-adv-x="1234" 
d="M1112 1288h-872v-547h811v-73h-811v-668h-86v1362h958v-74z" />
    <glyph glyph-name="G" unicode="G" horiz-adv-x="1581" 
d="M766 -35q-159 0 -283 51.5t-205 146t-123 226.5t-42 295q0 329 173 522t498 193q282 0 441 -137.5t188 -403.5h-88q-33 248 -163 357.5t-378 109.5q-287 0 -433 -157t-146 -484q0 -645 575 -645q451 0 543 541h-688v71h778v-647h-82v420q-18 -71 -39 -126t-65 -121
t-101.5 -109.5t-150 -73t-209.5 -29.5z" />
    <glyph glyph-name="H" unicode="H" horiz-adv-x="1388" 
d="M1149 1362h86v-1362h-86v670h-909v-670h-86v1362h86v-619h909v619z" />
    <glyph glyph-name="I" unicode="I" horiz-adv-x="991" 
d="M848 1288h-309v-1214h309v-74h-705v74h310v1214h-310v74h705v-74z" />
    <glyph glyph-name="J" unicode="J" horiz-adv-x="802" 
d="M78 0v74h493v1288h86v-1247q0 -61 -27 -88t-95 -27h-457z" />
    <glyph glyph-name="K" unicode="K" horiz-adv-x="1300" 
d="M623 776l575 -772v-4h-108l-525 715l-325 -353v-362h-86v1362h86v-885l804 885h117z" />
    <glyph glyph-name="L" unicode="L" horiz-adv-x="1097" 
d="M240 74h755v-74h-841v1362h86v-1288z" />
    <glyph glyph-name="M" unicode="M" horiz-adv-x="1699" 
d="M1546 1362v-1362h-86v1303l-545 -1303h-131l-544 1303v-1303h-86v1362h157l541 -1294l541 1294h153z" />
    <glyph glyph-name="N" unicode="N" horiz-adv-x="1388" 
d="M1149 1362h86v-1362h-127l-809 1182q-35 51 -59 100v-1282h-86v1362h127l804 -1178q41 -59 64 -102v1280z" />
    <glyph glyph-name="O" unicode="O" horiz-adv-x="1536" 
d="M768 -35q-164 0 -289.5 51.5t-205 146.5t-120 226t-40.5 295q0 161 40.5 291.5t120 225.5t205.5 146.5t289 51.5t289 -52t205.5 -147t120 -225t40.5 -291q0 -163 -40.5 -294t-120 -226.5t-205 -147t-289.5 -51.5zM205 684q0 -325 140 -485t423 -160t423 160t140 485
q0 323 -140 482t-423 159t-423 -159t-140 -482z" />
    <glyph glyph-name="P" unicode="P" horiz-adv-x="1220" 
d="M737 1362q198 0 294.5 -98t96.5 -271q0 -81 -23 -147t-71 -116.5t-128.5 -78.5t-188.5 -28h-477v-623h-86v1362h583zM713 696q323 0 323 297q0 154 -74 224.5t-229 70.5h-493v-592h473z" />
    <glyph glyph-name="Q" unicode="Q" horiz-adv-x="1572" 
d="M113 711q0 327 169 507.5t498 180.5q328 0 497 -180.5t169 -503.5q0 -114 -23.5 -215t-71 -186t-125 -148t-179.5 -94h413v-72h-680q-328 0 -497.5 189t-169.5 522zM205 711q0 -324 143.5 -480.5t431.5 -156.5q286 0 430 156.5t144 480.5q0 320 -143 467t-431 147
q-291 0 -433 -147t-142 -467z" />
    <glyph glyph-name="R" unicode="R" horiz-adv-x="1286" 
d="M1094 377v-174q0 -108 20 -203h-86q-20 82 -20 203v162q0 146 -74.5 216t-231.5 70h-462v-651h-86v1362h598q198 0 291.5 -89t93.5 -251q0 -129 -74 -222.5t-189 -113.5q220 -39 220 -309zM240 723h481q164 0 243.5 76t79.5 211q0 151 -73 214.5t-230 63.5h-501v-565z
" />
    <glyph glyph-name="S" unicode="S" horiz-adv-x="1339" 
d="M123 487h86q0 -442 498 -442q218 0 318.5 72.5t100.5 220.5q0 134 -63 199.5t-221 93.5l-334 57q-179 31 -254.5 112t-75.5 224q0 78 30.5 145t89 119t153.5 81.5t215 29.5q233 0 374 -117t154 -336h-86q-24 379 -442 379q-204 0 -301 -79.5t-97 -221.5q0 -48 10 -84.5
t35.5 -72.5t77 -61t127.5 -38l352 -59q187 -32 267 -115t80 -240q0 -190 -122.5 -286.5t-387.5 -96.5q-157 0 -272 39t-182 110t-98.5 162t-31.5 205z" />
    <glyph glyph-name="T" unicode="T" horiz-adv-x="1253" 
d="M1192 1362v-74h-520v-1292h-86v1292h-525v74h1131z" />
    <glyph glyph-name="U" unicode="U" horiz-adv-x="1335" 
d="M143 471v891h86v-889q0 -224 106 -328t333 -104t332.5 104t105.5 328v889h86v-891q0 -247 -125 -375.5t-399 -128.5q-275 0 -400 128t-125 376z" />
    <glyph glyph-name="V" unicode="V" horiz-adv-x="1320" 
d="M1141 1362h88l-508 -1362h-121l-508 1362h92l455 -1221l25 -65q2 7 22 65z" />
    <glyph glyph-name="W" unicode="W" horiz-adv-x="1976" 
d="M1772 1362h86l-338 -1362h-138l-393 1292l-395 -1292h-137l-338 1362h90l319 -1292l396 1292h133l395 -1292z" />
    <glyph glyph-name="X" unicode="X" horiz-adv-x="1353" 
d="M1247 0h-108l-461 618l-455 -618h-104l508 688l-502 674h102l455 -606l451 606h98l-496 -678z" />
    <glyph glyph-name="Y" unicode="Y" horiz-adv-x="1226" 
d="M1057 1362h98l-500 -830v-532h-86v532l-497 830h102l375 -639l65 -121q9 17 20 37.5t25.5 45t22.5 38.5z" />
    <glyph glyph-name="Z" unicode="Z" horiz-adv-x="1384" 
d="M242 74h1020v-74h-1129v74l1020 1214h-993v74h1095v-74z" />
    <glyph glyph-name="bracketleft" unicode="[" horiz-adv-x="847" 
d="M756 1448h-527v-1780h527v-78h-613v1936h613v-78z" />
    <glyph glyph-name="backslash" unicode="\" horiz-adv-x="546" 
d="M516 0h-72l-424 1362h72z" />
    <glyph glyph-name="bracketright" unicode="]" horiz-adv-x="847" 
d="M705 1526v-1936h-613v78h526v1780h-526v78h613z" />
    <glyph glyph-name="asciicircum" unicode="^" horiz-adv-x="956" 
d="M782 793h-82l-221 514l-223 -514h-82l246 569h117z" />
    <glyph glyph-name="underscore" unicode="_" horiz-adv-x="983" 
d="M82 0h819v-70h-819v70z" />
    <glyph glyph-name="grave" unicode="`" horiz-adv-x="1228" 
d="M61 1327l33 80l430 -190l-18 -50z" />
    <glyph glyph-name="a" unicode="a" horiz-adv-x="1093" 
d="M467 -27q-67 0 -125.5 17t-106 50.5t-75 90.5t-27.5 131q0 127 77 202t234 101l269 45q97 15 133.5 43.5t36.5 94.5q0 51 -13.5 91.5t-46 75t-94.5 53.5t-151 19q-318 0 -342 -287h-78q11 165 118.5 262t301.5 97q376 0 376 -305v-461q0 -113 17 -293h-74
q-16 166 -16 258q-13 -38 -30.5 -72.5t-51.5 -75t-77 -69.5t-109.5 -48.5t-145.5 -19.5zM475 45q85 0 156 27t116.5 70t77 99t45 111.5t13.5 110.5v139q-37 -23 -74.5 -37t-114.5 -26l-227 -39q-127 -22 -187.5 -77.5t-60.5 -160.5q0 -108 70.5 -162.5t185.5 -54.5z" />
    <glyph glyph-name="b" unicode="b" horiz-adv-x="1208" 
d="M645 1059q224 0 337.5 -142t113.5 -403q0 -259 -114 -402t-337 -143q-145 0 -247.5 67.5t-155.5 194.5v-231h-82v1434h82v-637q53 127 155.5 194.5t247.5 67.5zM633 41q184 0 280.5 118.5t96.5 354.5t-96.5 354.5t-280.5 118.5q-85 0 -154.5 -27t-123.5 -82.5
t-83.5 -148.5t-29.5 -217t29.5 -216.5t83.5 -147t123.5 -81t154.5 -26.5z" />
    <glyph glyph-name="c" unicode="c" horiz-adv-x="1155" 
d="M106 514q0 250 129 396.5t359 146.5q204 0 314.5 -104.5t133.5 -286.5h-77q-28 165 -125 242t-242 77q-194 0 -299.5 -118t-105.5 -353t102.5 -355t290.5 -120q169 0 272 86t121 256h78q-14 -190 -137.5 -302t-333.5 -112q-231 0 -355.5 146t-124.5 401z" />
    <glyph glyph-name="d" unicode="d" horiz-adv-x="1208" 
d="M967 1434h82v-1434h-82v231q-53 -127 -156 -194.5t-248 -67.5q-223 0 -336.5 143t-113.5 402q0 261 113.5 403t336.5 142q145 0 248 -67.5t156 -194.5v637zM575 41q85 0 154.5 26.5t124 81t84 147t29.5 216.5q0 242 -107.5 358.5t-284.5 116.5q-184 0 -280 -118t-96 -355
t96 -355t280 -118z" />
    <glyph glyph-name="e" unicode="e" horiz-adv-x="1155" 
d="M975 328h76q-11 -72 -42 -134.5t-84.5 -114.5t-138 -82t-190.5 -30q-239 0 -364.5 148t-125.5 399q0 246 127.5 394.5t362.5 148.5q207 0 330 -127t123 -357q0 -37 -2 -55h-854v-4q0 -236 104.5 -355.5t302.5 -119.5q167 0 259 76t116 213zM596 985q-178 0 -281 -99.5
t-120 -297.5h768q-3 209 -102 303t-265 94z" />
    <glyph glyph-name="f" unicode="f" horiz-adv-x="679" 
d="M225 0v954h-164v60l164 10v295q0 61 27.5 88t95.5 27h332v-70h-375v-340h328v-70h-326v-954h-82z" />
    <glyph glyph-name="g" unicode="g" horiz-adv-x="1210" 
d="M969 1024h82v-1038q0 -101 -23.5 -175.5t-76 -130.5t-144 -84t-221.5 -28q-410 0 -443 348h78q4 -54 23.5 -100t59 -87.5t110.5 -65t168 -23.5q208 0 297.5 80.5t89.5 259.5v276q-103 -242 -406 -242q-450 0 -450 523q0 518 450 518q303 0 406 -242v211zM580 86
q179 0 284 108t105 343q0 234 -104.5 340t-284.5 106q-381 0 -381 -446q0 -451 381 -451z" />
    <glyph glyph-name="h" unicode="h" horiz-adv-x="1173" 
d="M680 1057q350 0 350 -377v-680h-82v662q0 171 -68.5 247t-213.5 76q-137 0 -232.5 -84.5t-141.5 -235t-46 -356.5v-309h-82v1434h82v-760q50 204 160.5 293.5t273.5 89.5z" />
    <glyph glyph-name="i" unicode="i" horiz-adv-x="409" 
d="M145 1223v139h119v-139h-119zM164 0v1024h82v-1024h-82z" />
    <glyph glyph-name="j" unicode="j" horiz-adv-x="337" 
d="M111 1223v139h118v-139h-118zM-61 -410v70h190v1364h82v-1319q0 -61 -27.5 -88t-95.5 -27h-149z" />
    <glyph glyph-name="k" unicode="k" horiz-adv-x="1081" 
d="M930 0l-441 539l-243 -238v-301h-82v1434h82v-1031l82 82l555 539h104v-2l-448 -434l501 -588h-110z" />
    <glyph glyph-name="l" unicode="l" horiz-adv-x="393" 
d="M156 0v1434h82v-1434h-82z" />
    <glyph glyph-name="m" unicode="m" horiz-adv-x="1855" 
d="M1378 1057q334 0 334 -357v-700h-82v682q0 167 -63.5 235t-202.5 68q-106 0 -181.5 -47.5t-119.5 -138.5t-64 -211t-20 -279v-309h-82v682q0 167 -65 235t-205 68q-85 0 -150.5 -31.5t-108.5 -88.5t-71 -142.5t-39.5 -186.5t-11.5 -227v-309h-82v1024h82v-317
q44 188 141.5 269t253.5 81q338 0 338 -355q44 190 143 272.5t256 82.5z" />
    <glyph glyph-name="n" unicode="n" horiz-adv-x="1173" 
d="M680 1057q350 0 350 -377v-680h-82v662q0 171 -68.5 247t-213.5 76q-137 0 -232.5 -84.5t-141.5 -235t-46 -356.5v-309h-82v1024h82v-350q50 204 160.5 293.5t273.5 89.5z" />
    <glyph glyph-name="o" unicode="o" horiz-adv-x="1191" 
d="M596 -33q-237 0 -363.5 148.5t-126.5 398.5q0 162 54 282.5t166 190.5t270 70q236 0 362.5 -148.5t126.5 -394.5q0 -163 -54 -285t-165.5 -192t-269.5 -70zM193 514q0 -235 105 -355t298 -120t298 120t105 355t-105 353t-298 118t-298 -118t-105 -353z" />
    <glyph glyph-name="p" unicode="p" horiz-adv-x="1208" 
d="M645 1055q223 0 337 -143t114 -402q0 -261 -113.5 -403t-337.5 -142q-145 0 -247.5 67.5t-155.5 194.5v-637h-82v1434h82v-231q53 127 155.5 194.5t247.5 67.5zM633 37q184 0 280.5 118.5t96.5 354.5t-96.5 354.5t-280.5 118.5q-85 0 -154.5 -26.5t-123.5 -81t-83.5 -147
t-29.5 -216.5t29.5 -217t83.5 -148.5t123.5 -82.5t154.5 -27z" />
    <glyph glyph-name="q" unicode="q" horiz-adv-x="1208" 
d="M967 1024h82v-1434h-82v637q-53 -127 -156 -194.5t-248 -67.5q-223 0 -336.5 142t-113.5 403q0 259 113.5 402t336.5 143q145 0 248 -67.5t156 -194.5v231zM575 37q177 0 284.5 116.5t107.5 358.5q0 124 -29.5 216.5t-84 147t-124 81t-154.5 26.5q-184 0 -280 -118
t-96 -355t96 -355t280 -118z" />
    <glyph glyph-name="r" unicode="r" horiz-adv-x="759" 
d="M649 1032h49v-86l-28 2q-105 8 -183 -23.5t-123 -86.5t-72.5 -139t-36.5 -166t-9 -183v-350h-82v1024h82v-334q88 342 403 342z" />
    <glyph glyph-name="s" unicode="s" horiz-adv-x="1056" 
d="M94 344h76q5 -55 17.5 -97t40 -82.5t69.5 -67t110 -42.5t158 -16q138 0 218.5 53.5t80.5 165.5q0 95 -59.5 146.5t-188.5 68.5l-204 27q-285 36 -285 270q0 133 99 211t278 78q197 0 303 -90.5t115 -241.5h-76q-3 41 -15.5 77.5t-38.5 70.5t-64 58.5t-95.5 39
t-128.5 14.5q-295 0 -295 -217q0 -174 211 -199l211 -26q157 -20 236 -84.5t79 -200.5q0 -145 -104 -219t-277 -74q-238 0 -350 97.5t-121 279.5z" />
    <glyph glyph-name="t" unicode="t" horiz-adv-x="761" 
d="M373 0q-68 0 -95.5 27t-27.5 88v839h-199v60l205 10l16 217h60v-217h358v-70h-358v-884h358v-70h-317z" />
    <glyph glyph-name="u" unicode="u" horiz-adv-x="1165" 
d="M920 1024h81v-1024h-81v348q-47 -203 -153 -292t-265 -89q-177 0 -268 90.5t-91 286.5v680h82v-662q0 -126 33 -198.5t94.5 -100.5t163.5 -28q134 0 226 86t135 236.5t43 357.5v309z" />
    <glyph glyph-name="v" unicode="v" horiz-adv-x="1089" 
d="M946 1024h86l-430 -1024h-110l-431 1024h91l397 -948z" />
    <glyph glyph-name="w" unicode="w" horiz-adv-x="1765" 
d="M1608 1024h86l-322 -1024h-121l-368 930l-371 -930h-119l-321 1024h90l293 -958l379 958h98l379 -958z" />
    <glyph glyph-name="x" unicode="x" horiz-adv-x="1105" 
d="M78 0l422 524l-406 500h105l354 -446l354 446h103l-406 -502l428 -522h-104l-377 471l-375 -471h-98z" />
    <glyph glyph-name="y" unicode="y" horiz-adv-x="1116" 
d="M973 1024h86l-590 -1356q-19 -44 -38 -61t-60 -17h-230v70h244l145 340h-22l-440 1024h90l389 -905l18 -49l17 49z" />
    <glyph glyph-name="z" unicode="z" horiz-adv-x="1132" 
d="M256 70h764v-70h-873v70l758 884h-778v70h879v-70z" />
    <glyph glyph-name="braceleft" unicode="{" horiz-adv-x="714" 
d="M82 545v69h59q86 0 123 44t37 141v436q0 166 86 257t256 91v-43q-133 -5 -196.5 -81t-63.5 -242v-459q0 -67 -32.5 -108.5t-98.5 -63.5v-13q66 -22 98.5 -63.5t32.5 -108.5v-458q0 -166 63.5 -242.5t196.5 -81.5v-43q-170 0 -256 91t-86 257v436q0 97 -37 141t-123 44
h-59z" />
    <glyph glyph-name="bar" unicode="|" horiz-adv-x="372" 
d="M143 -410v1936h86v-1936h-86z" />
    <glyph glyph-name="braceright" unicode="}" horiz-adv-x="714" 
d="M633 545h-60q-86 0 -122.5 -44t-36.5 -141v-436q0 -166 -86 -257t-256 -91v43q133 5 196.5 81.5t63.5 242.5v458q0 67 32.5 108.5t98.5 63.5v13q-66 22 -98.5 63.5t-32.5 108.5v459q0 166 -63.5 242t-196.5 81v43q170 0 256 -91t86 -257v-436q0 -97 36.5 -141t122.5 -44
h60v-69z" />
    <glyph glyph-name="asciitilde" unicode="~" horiz-adv-x="954" 
d="M625 367q-47 0 -84.5 23t-62.5 56t-47 66.5t-48 56.5t-55 23q-88 0 -88 -141v-80h-66v80q0 58 14.5 99.5t38.5 61.5t48 28.5t51 8.5q50 0 89.5 -23t64.5 -56.5t47.5 -66.5t49.5 -56t58 -23q80 0 80 141v80h65v-80q0 -58 -15 -99.5t-39.5 -61.5t-49 -28.5t-51.5 -8.5z" />
    <glyph glyph-name="exclamdown" unicode="&#xa1;" horiz-adv-x="323" 
d="M86 1024h152v-150h-152v150zM133 625h57l13 -963h-82z" />
    <glyph glyph-name="cent" unicode="&#xa2;" horiz-adv-x="1009" 
d="M848 817q-6 -131 -83.5 -213t-207.5 -96v-146h-82v146q-149 9 -231 112.5t-82 278.5q0 171 83 274t230 115v146h82v-146q123 -11 195.5 -86t85.5 -207h-72q-37 224 -250 224q-132 0 -202 -82t-70 -238q0 -158 67.5 -239.5t196.5 -81.5q121 0 188 61t78 178h74z" />
    <glyph glyph-name="sterling" unicode="&#xa3;" horiz-adv-x="1132" 
d="M453 70h516v-70h-805v70h207v516h-135v69h135v181h-135v69h135v414q0 61 27.5 88t95.5 27h458v-74h-499v-455h385v-69h-385v-181h385v-69h-385v-516z" />
    <glyph glyph-name="yen" unicode="&#xa5;" horiz-adv-x="1226" 
d="M1155 1362l-467 -776h336v-70h-369v-145h369v-70h-369v-301h-86v301h-364v70h364v145h-364v70h332l-465 776h102l375 -639q25 -43 65 -129q28 60 68 129l375 639h98z" />
    <glyph glyph-name="brokenbar" unicode="&#xa6;" horiz-adv-x="372" 
d="M143 698v828h86v-828h-86zM143 -410v828h86v-828h-86z" />
    <glyph glyph-name="section" unicode="&#xa7;" horiz-adv-x="1105" 
d="M156 -59h75q-2 -160 82.5 -238t261.5 -78q150 0 222.5 49.5t72.5 151.5q0 93 -42 136t-154 65l-217 39q-133 23 -197.5 84t-64.5 165q0 241 346 273q164 16 240.5 60.5t76.5 139.5q0 92 -43 136.5t-153 64.5l-220 39q-260 46 -260 250q0 124 100.5 199t266.5 75
q171 0 269 -88.5t104 -249.5h-78q-6 138 -79 204.5t-216 66.5q-138 0 -211.5 -53.5t-73.5 -153.5q0 -148 191 -178l229 -39q134 -20 194 -82t60 -180q0 -133 -91.5 -195.5t-285.5 -83.5q-153 -16 -219 -60t-66 -145q0 -71 48.5 -117t142.5 -61l229 -37q135 -23 194.5 -84
t59.5 -178q0 -146 -90.5 -213t-284.5 -67q-209 0 -315.5 97t-103.5 286z" />
    <glyph glyph-name="dieresis" unicode="&#xa8;" horiz-adv-x="1228" 
d="M102 1223v139h119v-139h-119zM383 1223v139h119v-139h-119z" />
    <glyph glyph-name="copyright" unicode="&#xa9;" horiz-adv-x="1763" 
d="M883 -37q-195 0 -360.5 96t-262 261.5t-96.5 361.5q0 145 57 277.5t153 229t229.5 153.5t279.5 57q145 0 278 -57t228.5 -153.5t152.5 -229t57 -277.5q0 -196 -96 -361.5t-261 -261.5t-359 -96zM883 41q129 0 247 51t204 136.5t137 204.5t51 249q0 129 -51 247t-137 204
t-204 137t-247 51q-130 0 -248.5 -51t-204.5 -137t-137 -204t-51 -247q0 -130 51 -249t137 -204.5t204.5 -136.5t248.5 -51zM471 682q0 217 113 343t309 126q169 0 268.5 -89t118.5 -257h-78q-22 135 -100 203.5t-207 68.5q-166 0 -252 -100t-86 -295q0 -193 84 -295
t244 -102q146 0 231 74.5t98 215.5h78q-11 -169 -119 -266.5t-288 -97.5q-196 0 -305 124.5t-109 346.5z" />
    <glyph glyph-name="guillemotleft" unicode="&#xab;" horiz-adv-x="1171" 
d="M123 508v8l436 508h98l-446 -512l446 -512h-98zM524 508v8l437 508h98l-447 -512l447 -512h-98z" />
    <glyph glyph-name="logicalnot" unicode="&#xac;" horiz-adv-x="1167" 
d="M993 543v-283h-73v213h-746v70h819z" />
    <glyph glyph-name="registered" unicode="&#xae;" horiz-adv-x="1155" 
d="M578 1397q124 0 228.5 -60.5t165 -165t60.5 -227.5q0 -190 -132.5 -323.5t-321.5 -133.5t-322 133.5t-133 323.5q0 92 36 176t97 144.5t145 96.5t177 36zM580 555q158 0 272.5 114.5t114.5 274.5q0 159 -114 273t-273 114q-160 0 -275 -114.5t-115 -272.5
q0 -160 114.5 -274.5t275.5 -114.5zM760 1044q0 -82 -72 -104q32 -9 44.5 -31.5t12.5 -68.5v-54q0 -25 11 -79h-60q-8 39 -8 79v52q0 38 -19.5 55.5t-62.5 17.5h-127v-204h-59v460h203q137 0 137 -123zM610 967q88 0 88 73q0 39 -18.5 55.5t-61.5 16.5h-139v-145h131z" />
    <glyph glyph-name="macron" unicode="&#xaf;" horiz-adv-x="1228" 
d="M174 1362h676v-70h-676v70z" />
    <glyph glyph-name="degree" unicode="&#xb0;" horiz-adv-x="759" 
d="M379 903q-131 0 -209 82.5t-78 202.5q0 115 78.5 196.5t208.5 81.5q132 0 210.5 -81.5t78.5 -196.5q0 -120 -78.5 -202.5t-210.5 -82.5zM164 1188q0 -100 62.5 -161.5t152.5 -61.5q92 0 154.5 61.5t62.5 161.5q0 101 -62 159t-155 58q-92 0 -153.5 -58t-61.5 -159z" />
    <glyph glyph-name="plusminus" unicode="&#xb1;" horiz-adv-x="921" 
d="M498 676h352v-70h-352v-248h-74v248h-352v70h352v246h74v-246zM72 186v70h778v-70h-778z" />
    <glyph glyph-name="acute" unicode="&#xb4;" horiz-adv-x="1228" 
d="M524 1327l-444 -160l-19 50l431 190z" />
    <glyph glyph-name="uni00B5" unicode="&#xb5;" horiz-adv-x="1165" 
d="M920 1024h81v-1024h-81v348q-47 -203 -153 -292t-265 -89q-194 0 -281 129v-506h-78v1434h82v-662q0 -126 33 -198.5t94.5 -100.5t163.5 -28q134 0 226 86t135 236.5t43 357.5v309z" />
    <glyph glyph-name="paragraph" unicode="&#xb6;" horiz-adv-x="1187" 
d="M788 1362v-1772h-86v1033h-167q-108 0 -188.5 28t-128.5 78.5t-71.5 116.5t-23.5 147q0 173 96.5 271t294.5 98h274zM938 1362h86v-1772h-86v1772z" />
    <glyph glyph-name="periodcentered" unicode="&#xb7;" horiz-adv-x="282" 
d="M66 430v150h151v-150h-151z" />
    <glyph glyph-name="cedilla" unicode="&#xb8;" horiz-adv-x="1228" 
d="M20 -319v69h177l-68 250h76l55 -197q34 -122 -94 -122h-146z" />
    <glyph glyph-name="guillemotright" unicode="&#xbb;" horiz-adv-x="1171" 
d="M647 508l-436 -508h-98l446 512l-446 512h98l436 -508v-8zM1049 508l-437 -508h-98l447 512l-447 512h98l437 -508v-8z" />
    <glyph glyph-name="questiondown" unicode="&#xbf;" horiz-adv-x="1193" 
d="M651 1024v-150h-151v150h151zM686 477v-78h-92q-115 0 -198 -30.5t-127.5 -83.5t-64.5 -113t-20 -131q0 -144 96.5 -243t262.5 -99q116 0 200 31.5t132.5 90t73 130.5t30.5 166h82q-9 -229 -137 -360.5t-377 -131.5q-111 0 -200 35.5t-143.5 94.5t-83 132t-28.5 152
q0 87 28 163t86 139t159 99.5t235 36.5h86z" />
    <glyph glyph-name="Agrave" unicode="&#xc0;" horiz-adv-x="1361" 
d="M913 1538l-18 -49l-444 160l32 80zM1190 0l-158 397h-704l-158 -397h-88l539 1362h120l539 -1362h-90zM356 471h648l-324 819z" />
    <glyph glyph-name="Aacute" unicode="&#xc1;" horiz-adv-x="1361" 
d="M911 1649l-444 -160l-18 49l430 191zM1190 0l-158 397h-704l-158 -397h-88l539 1362h120l539 -1362h-90zM356 471h648l-324 819z" />
    <glyph glyph-name="Acircumflex" unicode="&#xc2;" horiz-adv-x="1361" 
d="M682 1655l-217 -160l-49 41l239 193h54l239 -193l-49 -41zM1190 0l-158 397h-704l-158 -397h-88l539 1362h120l539 -1362h-90zM356 471h648l-324 819z" />
    <glyph glyph-name="Atilde" unicode="&#xc3;" horiz-adv-x="1361" 
d="M506 1585v-39h-66v39q0 58 32 87.5t83 29.5q39 0 78 -16t64 -35.5t54 -35.5t52 -16q31 0 43 13t12 47v39h66v-39q0 -58 -32 -87.5t-83 -29.5q-44 0 -92 26t-89 51.5t-67 25.5q-31 0 -43 -13t-12 -47zM1190 0l-158 397h-704l-158 -397h-88l539 1362h120l539 -1362h-90z
M356 471h648l-324 819z" />
    <glyph glyph-name="Adieresis" unicode="&#xc4;" horiz-adv-x="1361" 
d="M600 1665v-139h-119v139h119zM881 1665v-139h-119v139h119zM1190 0l-158 397h-704l-158 -397h-88l539 1362h120l539 -1362h-90zM356 471h648l-324 819z" />
    <glyph glyph-name="Aring" unicode="&#xc5;" horiz-adv-x="1361" 
d="M682 1473q-64 0 -101.5 39.5t-37.5 97.5q0 56 37.5 95.5t101.5 39.5t101.5 -39.5t37.5 -95.5q0 -58 -37.5 -97.5t-101.5 -39.5zM682 1692q-33 0 -56.5 -22.5t-23.5 -59.5t23.5 -60.5t56.5 -23.5t56.5 23.5t23.5 60.5t-23.5 59.5t-56.5 22.5zM1190 0l-158 397h-704
l-158 -397h-88l539 1362h120l539 -1362h-90zM356 471h648l-324 819z" />
    <glyph glyph-name="AE" unicode="&#xc6;" horiz-adv-x="2115" 
d="M1092 74h884v-74h-970v399h-600l-267 -399h-88v6l903 1356h1016v-74h-878v-543h817v-73h-817v-598zM455 473h551v827z" />
    <glyph glyph-name="Ccedilla" unicode="&#xc7;" horiz-adv-x="1511" 
d="M1409 569q-8 -128 -47.5 -233.5t-110 -186t-179.5 -128t-247 -54.5l45 -164q34 -122 -94 -122h-145v69h176l-57 215q-209 5 -353.5 96.5t-214 249.5t-69.5 373q0 330 169 522.5t492 192.5q286 0 443.5 -144t187.5 -407h-88q-24 245 -161 361t-382 116q-569 0 -569 -641
q0 -645 569 -645q254 0 394.5 135.5t152.5 394.5h88z" />
    <glyph glyph-name="Egrave" unicode="&#xc8;" horiz-adv-x="1263" 
d="M846 1538l-19 -49l-444 160l33 80zM240 74h884v-74h-970v1362h964v-74h-878v-543h817v-73h-817v-598z" />
    <glyph glyph-name="Eacute" unicode="&#xc9;" horiz-adv-x="1263" 
d="M844 1649l-445 -160l-18 49l430 191zM240 74h884v-74h-970v1362h964v-74h-878v-543h817v-73h-817v-598z" />
    <glyph glyph-name="Ecircumflex" unicode="&#xca;" horiz-adv-x="1263" 
d="M614 1655l-217 -160l-49 41l240 193h53l240 -193l-50 -41zM240 74h884v-74h-970v1362h964v-74h-878v-543h817v-73h-817v-598z" />
    <glyph glyph-name="Edieresis" unicode="&#xcb;" horiz-adv-x="1263" 
d="M532 1665v-139h-118v139h118zM813 1665v-139h-119v139h119zM240 74h884v-74h-970v1362h964v-74h-878v-543h817v-73h-817v-598z" />
    <glyph glyph-name="Igrave" unicode="&#xcc;" horiz-adv-x="991" 
d="M727 1538l-18 -49l-445 160l33 80zM848 1288h-309v-1214h309v-74h-705v74h310v1214h-310v74h705v-74z" />
    <glyph glyph-name="Iacute" unicode="&#xcd;" horiz-adv-x="991" 
d="M725 1649l-444 -160l-19 49l430 191zM848 1288h-309v-1214h309v-74h-705v74h310v1214h-310v74h705v-74z" />
    <glyph glyph-name="Icircumflex" unicode="&#xce;" horiz-adv-x="991" 
d="M496 1655l-217 -160l-50 41l240 193h53l240 -193l-49 -41zM848 1288h-309v-1214h309v-74h-705v74h310v1214h-310v74h705v-74z" />
    <glyph glyph-name="Idieresis" unicode="&#xcf;" horiz-adv-x="991" 
d="M414 1665v-139h-119v139h119zM694 1665v-139h-119v139h119zM848 1288h-309v-1214h309v-74h-705v74h310v1214h-310v74h705v-74z" />
    <glyph glyph-name="Eth" unicode="&#xd0;" horiz-adv-x="1597" 
d="M850 1362q132 0 238 -34.5t177.5 -95.5t119 -147t69 -185.5t21.5 -215.5q0 -148 -35 -269t-107.5 -215.5t-195.5 -147t-287 -52.5h-512v643h-256v74h256v645h512zM844 74q121 0 214 29.5t153.5 81.5t99.5 129.5t55 167.5t16 202t-16 201t-54.5 166t-99 128t-153.5 80
t-215 29h-420v-571h477v-74h-477v-569h420z" />
    <glyph glyph-name="Ntilde" unicode="&#xd1;" horiz-adv-x="1388" 
d="M518 1585v-39h-65v39q0 59 31.5 88t82.5 29q39 0 78 -16t64 -35.5t54 -35.5t52 -16q31 0 43 13t12 47v39h66v-39q0 -58 -32 -87.5t-83 -29.5q-44 0 -92 26t-89 51.5t-67 25.5q-31 0 -43 -13t-12 -47zM1149 1362h86v-1362h-127l-809 1182q-35 51 -59 100v-1282h-86v1362
h127l804 -1178q41 -59 64 -102v1280z" />
    <glyph glyph-name="Ograve" unicode="&#xd2;" horiz-adv-x="1536" 
d="M537 1649l32 80l430 -191l-18 -49zM768 -35q-164 0 -289.5 51.5t-205 146.5t-120 226t-40.5 295q0 161 40.5 291.5t120 225.5t205.5 146.5t289 51.5t289 -52t205.5 -147t120 -225t40.5 -291q0 -163 -40.5 -294t-120 -226.5t-205 -147t-289.5 -51.5zM205 684
q0 -325 140 -485t423 -160t423 160t140 485q0 323 -140 482t-423 159t-423 -159t-140 -482z" />
    <glyph glyph-name="Oacute" unicode="&#xd3;" horiz-adv-x="1536" 
d="M997 1649l-444 -160l-18 49l430 191zM768 -35q-164 0 -289.5 51.5t-205 146.5t-120 226t-40.5 295q0 161 40.5 291.5t120 225.5t205.5 146.5t289 51.5t289 -52t205.5 -147t120 -225t40.5 -291q0 -163 -40.5 -294t-120 -226.5t-205 -147t-289.5 -51.5zM205 684
q0 -325 140 -485t423 -160t423 160t140 485q0 323 -140 482t-423 159t-423 -159t-140 -482z" />
    <glyph glyph-name="Ocircumflex" unicode="&#xd4;" horiz-adv-x="1536" 
d="M502 1536l239 193h54l239 -193l-49 -41l-217 160l-217 -160zM768 -35q-164 0 -289.5 51.5t-205 146.5t-120 226t-40.5 295q0 161 40.5 291.5t120 225.5t205.5 146.5t289 51.5t289 -52t205.5 -147t120 -225t40.5 -291q0 -163 -40.5 -294t-120 -226.5t-205 -147
t-289.5 -51.5zM205 684q0 -325 140 -485t423 -160t423 160t140 485q0 323 -140 482t-423 159t-423 -159t-140 -482z" />
    <glyph glyph-name="Otilde" unicode="&#xd5;" horiz-adv-x="1536" 
d="M895 1542q-44 0 -92 26t-89 51.5t-67 25.5q-31 0 -43 -13t-12 -47v-39h-66v39q0 58 32 87.5t83 29.5q39 0 78 -16t64 -35.5t54 -35.5t52 -16q31 0 43 13t12 47v39h66v-39q0 -58 -32 -87.5t-83 -29.5zM768 -35q-164 0 -289.5 51.5t-205 146.5t-120 226t-40.5 295
q0 161 40.5 291.5t120 225.5t205.5 146.5t289 51.5t289 -52t205.5 -147t120 -225t40.5 -291q0 -163 -40.5 -294t-120 -226.5t-205 -147t-289.5 -51.5zM205 684q0 -325 140 -485t423 -160t423 160t140 485q0 323 -140 482t-423 159t-423 -159t-140 -482z" />
    <glyph glyph-name="Odieresis" unicode="&#xd6;" horiz-adv-x="1536" 
d="M567 1526v139h119v-139h-119zM848 1526v139h119v-139h-119zM768 -35q-164 0 -289.5 51.5t-205 146.5t-120 226t-40.5 295q0 161 40.5 291.5t120 225.5t205.5 146.5t289 51.5t289 -52t205.5 -147t120 -225t40.5 -291q0 -163 -40.5 -294t-120 -226.5t-205 -147
t-289.5 -51.5zM205 684q0 -325 140 -485t423 -160t423 160t140 485q0 323 -140 482t-423 159t-423 -159t-140 -482z" />
    <glyph glyph-name="multiply" unicode="&#xd7;" horiz-adv-x="1001" 
d="M920 905l-371 -370l366 -367l-49 -49l-366 366l-365 -364l-51 51l365 365l-367 366l49 49l367 -366l370 370z" />
    <glyph glyph-name="Oslash" unicode="&#xd8;" horiz-adv-x="1536" 
d="M1061 1346q181 -75 271.5 -246.5t90.5 -415.5q0 -163 -40.5 -294t-120 -226.5t-205 -147t-289.5 -51.5q-138 0 -238 33l-143 -367l-72 21l146 373q-174 77 -261 246.5t-87 412.5q0 161 40.5 291.5t120 225.5t205.5 146.5t289 51.5q113 0 223 -29l109 277l71 -21zM205 684
q0 -460 284 -592l476 1211q-93 22 -197 22q-283 0 -423 -159t-140 -482zM768 39q283 0 423 160t140 485q0 469 -297 594l-477 -1212q95 -27 211 -27z" />
    <glyph glyph-name="Ugrave" unicode="&#xd9;" horiz-adv-x="1335" 
d="M436 1649l33 80l430 -191l-18 -49zM143 471v891h86v-889q0 -224 106 -328t333 -104t332.5 104t105.5 328v889h86v-891q0 -247 -125 -375.5t-399 -128.5q-275 0 -400 128t-125 376z" />
    <glyph glyph-name="Uacute" unicode="&#xda;" horiz-adv-x="1335" 
d="M897 1649l-444 -160l-19 49l430 191zM143 471v891h86v-889q0 -224 106 -328t333 -104t332.5 104t105.5 328v889h86v-891q0 -247 -125 -375.5t-399 -128.5q-275 0 -400 128t-125 376z" />
    <glyph glyph-name="Ucircumflex" unicode="&#xdb;" horiz-adv-x="1335" 
d="M401 1536l240 193h53l240 -193l-49 -41l-217 160l-217 -160zM143 471v891h86v-889q0 -224 106 -328t333 -104t332.5 104t105.5 328v889h86v-891q0 -247 -125 -375.5t-399 -128.5q-275 0 -400 128t-125 376z" />
    <glyph glyph-name="Udieresis" unicode="&#xdc;" horiz-adv-x="1335" 
d="M467 1526v139h119v-139h-119zM748 1526v139h118v-139h-118zM143 471v891h86v-889q0 -224 106 -328t333 -104t332.5 104t105.5 328v889h86v-891q0 -247 -125 -375.5t-399 -128.5q-275 0 -400 128t-125 376z" />
    <glyph glyph-name="Yacute" unicode="&#xdd;" horiz-adv-x="1226" 
d="M844 1649l-445 -160l-18 49l430 191zM1057 1362h98l-500 -830v-532h-86v532l-497 830h102l375 -639l65 -121q9 17 20 37.5t25.5 45t22.5 38.5z" />
    <glyph glyph-name="Thorn" unicode="&#xde;" horiz-adv-x="1220" 
d="M737 1051q198 0 294.5 -98t96.5 -271q0 -81 -23 -147t-71 -117t-128.5 -79t-188.5 -28h-477v-311h-86v1362h86v-311h497zM713 385q323 0 323 297q0 154 -74 224.5t-229 70.5h-493v-592h473z" />
    <glyph glyph-name="germandbls" unicode="&#xdf;" horiz-adv-x="1265" 
d="M154 0v901q0 232 124 353.5t367 121.5q126 0 218.5 -28t145.5 -78t78 -112.5t25 -137.5q0 -129 -59.5 -207.5t-169.5 -97.5q50 -6 94.5 -28.5t82.5 -63.5t60.5 -108t22.5 -153q0 -362 -395 -362h-246v74h248q167 0 234 72.5t67 224.5q0 148 -77 226.5t-249 78.5h-223v76
h209q162 0 235.5 72t73.5 196q0 133 -96 208t-279 75q-200 0 -302.5 -104t-102.5 -304v-895h-86z" />
    <glyph glyph-name="agrave" unicode="&#xe0;" horiz-adv-x="1093" 
d="M350 1327l33 80l430 -190l-18 -50zM467 -27q-67 0 -125.5 17t-106 50.5t-75 90.5t-27.5 131q0 127 77 202t234 101l269 45q97 15 133.5 43.5t36.5 94.5q0 51 -13.5 91.5t-46 75t-94.5 53.5t-151 19q-318 0 -342 -287h-78q11 165 118.5 262t301.5 97q376 0 376 -305v-461
q0 -113 17 -293h-74q-16 166 -16 258q-13 -38 -30.5 -72.5t-51.5 -75t-77 -69.5t-109.5 -48.5t-145.5 -19.5zM475 45q85 0 156 27t116.5 70t77 99t45 111.5t13.5 110.5v139q-37 -23 -74.5 -37t-114.5 -26l-227 -39q-127 -22 -187.5 -77.5t-60.5 -160.5q0 -108 70.5 -162.5
t185.5 -54.5z" />
    <glyph glyph-name="aacute" unicode="&#xe1;" horiz-adv-x="1093" 
d="M797 1327l-445 -160l-18 50l430 190zM467 -27q-67 0 -125.5 17t-106 50.5t-75 90.5t-27.5 131q0 127 77 202t234 101l269 45q97 15 133.5 43.5t36.5 94.5q0 51 -13.5 91.5t-46 75t-94.5 53.5t-151 19q-318 0 -342 -287h-78q11 165 118.5 262t301.5 97q376 0 376 -305
v-461q0 -113 17 -293h-74q-16 166 -16 258q-13 -38 -30.5 -72.5t-51.5 -75t-77 -69.5t-109.5 -48.5t-145.5 -19.5zM475 45q85 0 156 27t116.5 70t77 99t45 111.5t13.5 110.5v139q-37 -23 -74.5 -37t-114.5 -26l-227 -39q-127 -22 -187.5 -77.5t-60.5 -160.5
q0 -108 70.5 -162.5t185.5 -54.5z" />
    <glyph glyph-name="acircumflex" unicode="&#xe2;" horiz-adv-x="1093" 
d="M301 1169l240 193h53l240 -193l-50 -41l-217 160l-217 -160zM467 -27q-67 0 -125.5 17t-106 50.5t-75 90.5t-27.5 131q0 127 77 202t234 101l269 45q97 15 133.5 43.5t36.5 94.5q0 51 -13.5 91.5t-46 75t-94.5 53.5t-151 19q-318 0 -342 -287h-78q11 165 118.5 262
t301.5 97q376 0 376 -305v-461q0 -113 17 -293h-74q-16 166 -16 258q-13 -38 -30.5 -72.5t-51.5 -75t-77 -69.5t-109.5 -48.5t-145.5 -19.5zM475 45q85 0 156 27t116.5 70t77 99t45 111.5t13.5 110.5v139q-37 -23 -74.5 -37t-114.5 -26l-227 -39q-127 -22 -187.5 -77.5
t-60.5 -160.5q0 -108 70.5 -162.5t185.5 -54.5z" />
    <glyph glyph-name="atilde" unicode="&#xe3;" horiz-adv-x="1093" 
d="M694 1206q-44 0 -92 26t-89 51.5t-67 25.5q-31 0 -43 -13t-12 -47v-39h-65v39q0 59 31.5 88t82.5 29q50 0 97 -25.5t85 -51t66 -25.5q31 0 43 12.5t12 46.5v39h66v-39q0 -58 -32 -87.5t-83 -29.5zM467 -27q-67 0 -125.5 17t-106 50.5t-75 90.5t-27.5 131q0 127 77 202
t234 101l269 45q97 15 133.5 43.5t36.5 94.5q0 51 -13.5 91.5t-46 75t-94.5 53.5t-151 19q-318 0 -342 -287h-78q11 165 118.5 262t301.5 97q376 0 376 -305v-461q0 -113 17 -293h-74q-16 166 -16 258q-13 -38 -30.5 -72.5t-51.5 -75t-77 -69.5t-109.5 -48.5t-145.5 -19.5z
M475 45q85 0 156 27t116.5 70t77 99t45 111.5t13.5 110.5v139q-37 -23 -74.5 -37t-114.5 -26l-227 -39q-127 -22 -187.5 -77.5t-60.5 -160.5q0 -108 70.5 -162.5t185.5 -54.5z" />
    <glyph glyph-name="adieresis" unicode="&#xe4;" horiz-adv-x="1093" 
d="M367 1223v139h118v-139h-118zM647 1223v139h119v-139h-119zM467 -27q-67 0 -125.5 17t-106 50.5t-75 90.5t-27.5 131q0 127 77 202t234 101l269 45q97 15 133.5 43.5t36.5 94.5q0 51 -13.5 91.5t-46 75t-94.5 53.5t-151 19q-318 0 -342 -287h-78q11 165 118.5 262
t301.5 97q376 0 376 -305v-461q0 -113 17 -293h-74q-16 166 -16 258q-13 -38 -30.5 -72.5t-51.5 -75t-77 -69.5t-109.5 -48.5t-145.5 -19.5zM475 45q85 0 156 27t116.5 70t77 99t45 111.5t13.5 110.5v139q-37 -23 -74.5 -37t-114.5 -26l-227 -39q-127 -22 -187.5 -77.5
t-60.5 -160.5q0 -108 70.5 -162.5t185.5 -54.5z" />
    <glyph glyph-name="aring" unicode="&#xe5;" horiz-adv-x="1093" 
d="M567 1143q-64 0 -101.5 39.5t-37.5 97.5q0 56 37.5 95.5t101.5 39.5t102 -39.5t38 -95.5q0 -58 -38 -97.5t-102 -39.5zM487 1280q0 -37 23.5 -60.5t56.5 -23.5t56.5 23.5t23.5 60.5t-23.5 59.5t-56.5 22.5t-56.5 -22.5t-23.5 -59.5zM467 -27q-67 0 -125.5 17t-106 50.5
t-75 90.5t-27.5 131q0 127 77 202t234 101l269 45q97 15 133.5 43.5t36.5 94.5q0 51 -13.5 91.5t-46 75t-94.5 53.5t-151 19q-318 0 -342 -287h-78q11 165 118.5 262t301.5 97q376 0 376 -305v-461q0 -113 17 -293h-74q-16 166 -16 258q-13 -38 -30.5 -72.5t-51.5 -75
t-77 -69.5t-109.5 -48.5t-145.5 -19.5zM475 45q85 0 156 27t116.5 70t77 99t45 111.5t13.5 110.5v139q-37 -23 -74.5 -37t-114.5 -26l-227 -39q-127 -22 -187.5 -77.5t-60.5 -160.5q0 -108 70.5 -162.5t185.5 -54.5z" />
    <glyph glyph-name="ae" unicode="&#xe6;" horiz-adv-x="1931" 
d="M1751 328h76q-11 -72 -42 -134.5t-84.5 -114.5t-138 -82t-190.5 -30q-176 0 -291 82t-163 230q-118 -306 -447 -306q-67 0 -126 17t-107.5 50.5t-76.5 90.5t-28 131q0 127 77 202t234 101l269 45q97 15 133.5 43.5t36.5 94.5q0 51 -13.5 91.5t-46 75t-94.5 53.5t-151 19
q-318 0 -342 -287h-78q11 165 118.5 262t301.5 97q334 0 368 -246q58 117 166 180.5t260 63.5q207 0 330 -127t123 -357q0 -37 -2 -55h-854v-4q0 -236 104.5 -355.5t302.5 -119.5q167 0 259 76t116 213zM1372 985q-178 0 -281 -99.5t-120 -297.5h768q-3 209 -102 303
t-265 94zM883 463v139q-37 -23 -74.5 -37t-114.5 -26l-227 -39q-127 -22 -187.5 -77.5t-60.5 -160.5q0 -107 72.5 -162t187.5 -55q85 0 155.5 27t115.5 70t76 99t44 111.5t13 110.5z" />
    <glyph glyph-name="ccedilla" unicode="&#xe7;" horiz-adv-x="1155" 
d="M1057 381q-12 -174 -119.5 -284.5t-290.5 -127.5l47 -166q34 -122 -94 -122h-145v69h176l-60 217q-224 4 -344.5 150t-120.5 397q0 250 129 396.5t359 146.5q204 0 314.5 -104.5t133.5 -286.5h-77q-28 165 -125 242t-242 77q-194 0 -299.5 -118t-105.5 -353t102.5 -355
t290.5 -120q169 0 272 86t121 256h78z" />
    <glyph glyph-name="egrave" unicode="&#xe8;" horiz-adv-x="1155" 
d="M825 1217l-18 -50l-445 160l33 80zM975 328h76q-11 -72 -42 -134.5t-84.5 -114.5t-138 -82t-190.5 -30q-239 0 -364.5 148t-125.5 399q0 246 127.5 394.5t362.5 148.5q207 0 330 -127t123 -357q0 -37 -2 -55h-854v-4q0 -236 104.5 -355.5t302.5 -119.5q167 0 259 76
t116 213zM596 985q-178 0 -281 -99.5t-120 -297.5h768q-3 209 -102 303t-265 94z" />
    <glyph glyph-name="eacute" unicode="&#xe9;" horiz-adv-x="1155" 
d="M809 1327l-444 -160l-19 50l430 190zM975 328h76q-11 -72 -42 -134.5t-84.5 -114.5t-138 -82t-190.5 -30q-239 0 -364.5 148t-125.5 399q0 246 127.5 394.5t362.5 148.5q207 0 330 -127t123 -357q0 -37 -2 -55h-854v-4q0 -236 104.5 -355.5t302.5 -119.5q167 0 259 76
t116 213zM596 985q-178 0 -281 -99.5t-120 -297.5h768q-3 209 -102 303t-265 94z" />
    <glyph glyph-name="ecircumflex" unicode="&#xea;" horiz-adv-x="1155" 
d="M580 1288l-218 -160l-49 41l240 193h53l240 -193l-49 -41zM975 328h76q-11 -72 -42 -134.5t-84.5 -114.5t-138 -82t-190.5 -30q-239 0 -364.5 148t-125.5 399q0 246 127.5 394.5t362.5 148.5q207 0 330 -127t123 -357q0 -37 -2 -55h-854v-4q0 -236 104.5 -355.5
t302.5 -119.5q167 0 259 76t116 213zM596 985q-178 0 -281 -99.5t-120 -297.5h768q-3 209 -102 303t-265 94z" />
    <glyph glyph-name="edieresis" unicode="&#xeb;" horiz-adv-x="1155" 
d="M498 1362v-139h-119v139h119zM778 1362v-139h-119v139h119zM975 328h76q-11 -72 -42 -134.5t-84.5 -114.5t-138 -82t-190.5 -30q-239 0 -364.5 148t-125.5 399q0 246 127.5 394.5t362.5 148.5q207 0 330 -127t123 -357q0 -37 -2 -55h-854v-4q0 -236 104.5 -355.5
t302.5 -119.5q167 0 259 76t116 213zM596 985q-178 0 -281 -99.5t-120 -297.5h768q-3 209 -102 303t-265 94z" />
    <glyph glyph-name="igrave" unicode="&#xec;" horiz-adv-x="409" 
d="M-12 1327l32 80l431 -190l-19 -50zM164 0v1024h82v-1024h-82z" />
    <glyph glyph-name="iacute" unicode="&#xed;" horiz-adv-x="409" 
d="M434 1327l-444 -160l-19 50l430 190zM164 0v1024h82v-1024h-82z" />
    <glyph glyph-name="icircumflex" unicode="&#xee;" horiz-adv-x="409" 
d="M-61 1169l239 193h53l240 -193l-49 -41l-217 160l-217 -160zM164 0v1024h82v-1024h-82z" />
    <glyph glyph-name="idieresis" unicode="&#xef;" horiz-adv-x="409" 
d="M4 1223v139h119v-139h-119zM285 1223v139h118v-139h-118zM164 0v1024h82v-1024h-82z" />
    <glyph glyph-name="eth" unicode="&#xf0;" horiz-adv-x="1161" 
d="M719 1364q166 -114 248 -290.5t82 -434.5q0 -149 -22.5 -264.5t-62 -191.5t-99 -124.5t-128.5 -69t-155 -20.5q-225 0 -347 144.5t-122 400.5q0 261 113.5 403t336.5 142q145 0 248 -68t156 -196q0 140 -73 278t-218 242l-152 -168l-53 45l145 162q-76 47 -178 86l27 53
q122 -46 194 -90l144 160l53 -45zM575 41q85 0 154.5 26.5t124 81t84 147t29.5 216.5q0 242 -107.5 358.5t-284.5 116.5q-184 0 -280 -118t-96 -355t96 -355t280 -118z" />
    <glyph glyph-name="ntilde" unicode="&#xf1;" horiz-adv-x="1173" 
d="M412 1249v-39h-66v39q0 58 32 87.5t83 29.5q50 0 97 -25.5t85 -51t66 -25.5q31 0 43 12.5t12 46.5v39h65v-39q0 -59 -31.5 -88t-82.5 -29q-44 0 -92 26t-89 51.5t-67 25.5q-31 0 -43 -13t-12 -47zM680 1057q350 0 350 -377v-680h-82v662q0 171 -68.5 247t-213.5 76
q-137 0 -232.5 -84.5t-141.5 -235t-46 -356.5v-309h-82v1024h82v-350q50 204 160.5 293.5t273.5 89.5z" />
    <glyph glyph-name="ograve" unicode="&#xf2;" horiz-adv-x="1191" 
d="M379 1327l33 80l430 -190l-19 -50zM596 -33q-237 0 -363.5 148.5t-126.5 398.5q0 162 54 282.5t166 190.5t270 70q236 0 362.5 -148.5t126.5 -394.5q0 -163 -54 -285t-165.5 -192t-269.5 -70zM193 514q0 -235 105 -355t298 -120t298 120t105 355t-105 353t-298 118
t-298 -118t-105 -353z" />
    <glyph glyph-name="oacute" unicode="&#xf3;" horiz-adv-x="1191" 
d="M825 1327l-444 -160l-19 50l431 190zM596 -33q-237 0 -363.5 148.5t-126.5 398.5q0 162 54 282.5t166 190.5t270 70q236 0 362.5 -148.5t126.5 -394.5q0 -163 -54 -285t-165.5 -192t-269.5 -70zM193 514q0 -235 105 -355t298 -120t298 120t105 355t-105 353t-298 118
t-298 -118t-105 -353z" />
    <glyph glyph-name="ocircumflex" unicode="&#xf4;" horiz-adv-x="1191" 
d="M330 1169l239 193h54l239 -193l-49 -41l-217 160l-217 -160zM596 -33q-237 0 -363.5 148.5t-126.5 398.5q0 162 54 282.5t166 190.5t270 70q236 0 362.5 -148.5t126.5 -394.5q0 -163 -54 -285t-165.5 -192t-269.5 -70zM193 514q0 -235 105 -355t298 -120t298 120t105 355
t-105 353t-298 118t-298 -118t-105 -353z" />
    <glyph glyph-name="otilde" unicode="&#xf5;" horiz-adv-x="1191" 
d="M723 1206q-44 0 -92 26t-89 51.5t-67 25.5q-31 0 -43 -13t-12 -47v-39h-66v39q0 58 32 87.5t83 29.5q50 0 97 -25.5t85 -51t66 -25.5q31 0 43 12.5t12 46.5v39h66v-39q0 -58 -32 -87.5t-83 -29.5zM596 -33q-237 0 -363.5 148.5t-126.5 398.5q0 162 54 282.5t166 190.5
t270 70q236 0 362.5 -148.5t126.5 -394.5q0 -163 -54 -285t-165.5 -192t-269.5 -70zM193 514q0 -235 105 -355t298 -120t298 120t105 355t-105 353t-298 118t-298 -118t-105 -353z" />
    <glyph glyph-name="odieresis" unicode="&#xf6;" horiz-adv-x="1191" 
d="M395 1223v139h119v-139h-119zM676 1223v139h119v-139h-119zM596 -33q-237 0 -363.5 148.5t-126.5 398.5q0 162 54 282.5t166 190.5t270 70q236 0 362.5 -148.5t126.5 -394.5q0 -163 -54 -285t-165.5 -192t-269.5 -70zM193 514q0 -235 105 -355t298 -120t298 120t105 355
t-105 353t-298 118t-298 -118t-105 -353z" />
    <glyph glyph-name="divide" unicode="&#xf7;" horiz-adv-x="999" 
d="M500 791q-39 0 -62.5 25t-23.5 61q0 33 24 57t62 24t62 -24t24 -57q0 -36 -23.5 -61t-62.5 -25zM61 543h877v-70h-877v70zM500 70q-39 0 -62.5 24.5t-23.5 59.5t23.5 59.5t62.5 24.5t62.5 -24.5t23.5 -59.5t-23.5 -59.5t-62.5 -24.5z" />
    <glyph glyph-name="oslash" unicode="&#xf8;" horiz-adv-x="1191" 
d="M838 1004q121 -64 184 -191.5t63 -298.5q0 -163 -54 -285t-165.5 -192t-269.5 -70q-86 0 -156 21l-104 -264l-72 20l107 268q-130 61 -197.5 191t-67.5 311q0 162 54 282.5t166 190.5t270 70q91 0 174 -25l88 225l72 -20zM193 514q0 -329 204 -432l346 883
q-64 20 -147 20q-193 0 -298 -118t-105 -353zM596 39q193 0 298 120t105 355q0 314 -188 420l-344 -879q62 -16 129 -16z" />
    <glyph glyph-name="ugrave" unicode="&#xf9;" horiz-adv-x="1165" 
d="M829 1217l-18 -50l-444 160l32 80zM920 1024h81v-1024h-81v348q-47 -203 -153 -292t-265 -89q-177 0 -268 90.5t-91 286.5v680h82v-662q0 -126 33 -198.5t94.5 -100.5t163.5 -28q134 0 226 86t135 236.5t43 357.5v309z" />
    <glyph glyph-name="uacute" unicode="&#xfa;" horiz-adv-x="1165" 
d="M813 1327l-444 -160l-19 50l430 190zM920 1024h81v-1024h-81v348q-47 -203 -153 -292t-265 -89q-177 0 -268 90.5t-91 286.5v680h82v-662q0 -126 33 -198.5t94.5 -100.5t163.5 -28q134 0 226 86t135 236.5t43 357.5v309z" />
    <glyph glyph-name="ucircumflex" unicode="&#xfb;" horiz-adv-x="1165" 
d="M584 1288l-217 -160l-50 41l240 193h53l240 -193l-49 -41zM920 1024h81v-1024h-81v348q-47 -203 -153 -292t-265 -89q-177 0 -268 90.5t-91 286.5v680h82v-662q0 -126 33 -198.5t94.5 -100.5t163.5 -28q134 0 226 86t135 236.5t43 357.5v309z" />
    <glyph glyph-name="udieresis" unicode="&#xfc;" horiz-adv-x="1165" 
d="M502 1362v-139h-119v139h119zM782 1362v-139h-118v139h118zM920 1024h81v-1024h-81v348q-47 -203 -153 -292t-265 -89q-177 0 -268 90.5t-91 286.5v680h82v-662q0 -126 33 -198.5t94.5 -100.5t163.5 -28q134 0 226 86t135 236.5t43 357.5v309z" />
    <glyph glyph-name="yacute" unicode="&#xfd;" horiz-adv-x="1116" 
d="M784 1327l-444 -160l-18 50l430 190zM973 1024h86l-590 -1356q-19 -44 -38 -61t-60 -17h-230v70h244l145 340h-22l-440 1024h90l389 -905l18 -49l17 49z" />
    <glyph glyph-name="thorn" unicode="&#xfe;" horiz-adv-x="1208" 
d="M645 1055q223 0 337 -143t114 -402q0 -261 -113.5 -403t-337.5 -142q-145 0 -247.5 67.5t-155.5 194.5v-637h-82v1844h82v-641q53 127 155.5 194.5t247.5 67.5zM633 37q184 0 280.5 118.5t96.5 354.5t-96.5 354.5t-280.5 118.5q-85 0 -154.5 -26.5t-123.5 -81t-83.5 -147
t-29.5 -216.5t29.5 -217t83.5 -148.5t123.5 -82.5t154.5 -27z" />
    <glyph glyph-name="ydieresis" unicode="&#xff;" horiz-adv-x="1116" 
d="M473 1362v-139h-119v139h119zM754 1362v-139h-119v139h119zM973 1024h86l-590 -1356q-19 -44 -38 -61t-60 -17h-230v70h244l145 340h-22l-440 1024h90l389 -905l18 -49l17 49z" />
    <glyph glyph-name="Amacron" unicode="&#x100;" horiz-adv-x="1361" 
d="M1020 1653v-70h-676v70h676zM1190 0l-158 397h-704l-158 -397h-88l539 1362h120l539 -1362h-90zM356 471h648l-324 819z" />
    <glyph glyph-name="amacron" unicode="&#x101;" horiz-adv-x="1093" 
d="M229 1362h676v-70h-676v70zM467 -27q-67 0 -125.5 17t-106 50.5t-75 90.5t-27.5 131q0 127 77 202t234 101l269 45q97 15 133.5 43.5t36.5 94.5q0 51 -13.5 91.5t-46 75t-94.5 53.5t-151 19q-318 0 -342 -287h-78q11 165 118.5 262t301.5 97q376 0 376 -305v-461
q0 -113 17 -293h-74q-16 166 -16 258q-13 -38 -30.5 -72.5t-51.5 -75t-77 -69.5t-109.5 -48.5t-145.5 -19.5zM475 45q85 0 156 27t116.5 70t77 99t45 111.5t13.5 110.5v139q-37 -23 -74.5 -37t-114.5 -26l-227 -39q-127 -22 -187.5 -77.5t-60.5 -160.5q0 -108 70.5 -162.5
t185.5 -54.5z" />
    <glyph glyph-name="Abreve" unicode="&#x102;" horiz-adv-x="1361" 
d="M682 1516q-96 0 -143.5 57.5t-49.5 136.5h52q8 -58 44 -92.5t97 -34.5t97 34.5t44 92.5h51q-2 -79 -49 -136.5t-143 -57.5zM1190 0l-158 397h-704l-158 -397h-88l539 1362h120l539 -1362h-90zM356 471h648l-324 819z" />
    <glyph glyph-name="abreve" unicode="&#x103;" horiz-adv-x="1093" 
d="M375 1362h51q8 -58 44 -92.5t97 -34.5t97.5 34.5t44.5 92.5h51q-2 -79 -49.5 -137t-143.5 -58t-143 58t-49 137zM467 -27q-67 0 -125.5 17t-106 50.5t-75 90.5t-27.5 131q0 127 77 202t234 101l269 45q97 15 133.5 43.5t36.5 94.5q0 51 -13.5 91.5t-46 75t-94.5 53.5
t-151 19q-318 0 -342 -287h-78q11 165 118.5 262t301.5 97q376 0 376 -305v-461q0 -113 17 -293h-74q-16 166 -16 258q-13 -38 -30.5 -72.5t-51.5 -75t-77 -69.5t-109.5 -48.5t-145.5 -19.5zM475 45q85 0 156 27t116.5 70t77 99t45 111.5t13.5 110.5v139q-37 -23 -74.5 -37
t-114.5 -26l-227 -39q-127 -22 -187.5 -77.5t-60.5 -160.5q0 -108 70.5 -162.5t185.5 -54.5z" />
    <glyph glyph-name="Aogonek" unicode="&#x104;" horiz-adv-x="1361" 
d="M1321 -250q45 0 88 14v-69q-46 -14 -102 -14q-96 0 -151.5 48t-55.5 140q0 103 74 174l-142 354h-704l-158 -397h-88l539 1362h120l539 -1362h-72q-41 -51 -41 -119q0 -64 41.5 -97.5t112.5 -33.5zM356 471h648l-324 819z" />
    <glyph glyph-name="aogonek" unicode="&#x105;" horiz-adv-x="1093" 
d="M1036 -250q45 0 88 14v-69q-46 -14 -102 -14q-96 0 -151.5 48t-55.5 140q0 105 78 176q-12 129 -12 213q-13 -38 -30.5 -72.5t-51.5 -75t-77 -69.5t-109.5 -48.5t-145.5 -19.5q-67 0 -125.5 17t-106 50.5t-75 90.5t-27.5 131q0 127 77 202t234 101l269 45
q97 15 133.5 43.5t36.5 94.5q0 51 -13.5 91.5t-46 75t-94.5 53.5t-151 19q-318 0 -342 -287h-78q11 165 118.5 262t301.5 97q376 0 376 -305v-461q0 -113 17 -293h-47q-41 -51 -41 -119q0 -64 41 -97.5t112 -33.5zM883 463v139q-37 -23 -74.5 -37t-114.5 -26l-227 -39
q-127 -22 -187.5 -77.5t-60.5 -160.5q0 -108 70.5 -162.5t185.5 -54.5q85 0 156 27t116.5 70t77 99t45 111.5t13.5 110.5z" />
    <glyph glyph-name="Cacute" unicode="&#x106;" horiz-adv-x="1511" 
d="M983 1649l-444 -160l-19 49l430 191zM774 -35q-323 0 -492 193t-169 526q0 330 169 522.5t492 192.5q286 0 443.5 -144t187.5 -407h-88q-24 245 -161 361t-382 116q-569 0 -569 -641q0 -645 569 -645q254 0 394.5 135.5t152.5 394.5h88q-8 -133 -50.5 -242t-119.5 -190.5
t-195.5 -126.5t-269.5 -45z" />
    <glyph glyph-name="cacute" unicode="&#x107;" horiz-adv-x="1155" 
d="M807 1327l-445 -160l-18 50l430 190zM106 514q0 250 129 396.5t359 146.5q204 0 314.5 -104.5t133.5 -286.5h-77q-28 165 -125 242t-242 77q-194 0 -299.5 -118t-105.5 -353t102.5 -355t290.5 -120q169 0 272 86t121 256h78q-14 -190 -137.5 -302t-333.5 -112
q-231 0 -355.5 146t-124.5 401z" />
    <glyph glyph-name="Cdotaccent" unicode="&#x10a;" horiz-adv-x="1511" 
d="M694 1526v139h119v-139h-119zM774 -35q-323 0 -492 193t-169 526q0 330 169 522.5t492 192.5q286 0 443.5 -144t187.5 -407h-88q-24 245 -161 361t-382 116q-569 0 -569 -641q0 -645 569 -645q254 0 394.5 135.5t152.5 394.5h88q-8 -133 -50.5 -242t-119.5 -190.5
t-195.5 -126.5t-269.5 -45z" />
    <glyph glyph-name="cdotaccent" unicode="&#x10b;" horiz-adv-x="1155" 
d="M518 1223v139h119v-139h-119zM106 514q0 250 129 396.5t359 146.5q204 0 314.5 -104.5t133.5 -286.5h-77q-28 165 -125 242t-242 77q-194 0 -299.5 -118t-105.5 -353t102.5 -355t290.5 -120q169 0 272 86t121 256h78q-14 -190 -137.5 -302t-333.5 -112q-231 0 -355.5 146
t-124.5 401z" />
    <glyph glyph-name="Ccaron" unicode="&#x10c;" horiz-adv-x="1511" 
d="M487 1692l50 41l217 -160l217 160l49 -41l-240 -193h-53zM774 -35q-323 0 -492 193t-169 526q0 330 169 522.5t492 192.5q286 0 443.5 -144t187.5 -407h-88q-24 245 -161 361t-382 116q-569 0 -569 -641q0 -645 569 -645q254 0 394.5 135.5t152.5 394.5h88
q-8 -133 -50.5 -242t-119.5 -190.5t-195.5 -126.5t-269.5 -45z" />
    <glyph glyph-name="ccaron" unicode="&#x10d;" horiz-adv-x="1155" 
d="M311 1341l49 41l218 -159l217 159l49 -41l-240 -192h-53zM106 514q0 250 129 396.5t359 146.5q204 0 314.5 -104.5t133.5 -286.5h-77q-28 165 -125 242t-242 77q-194 0 -299.5 -118t-105.5 -353t102.5 -355t290.5 -120q169 0 272 86t121 256h78q-14 -190 -137.5 -302
t-333.5 -112q-231 0 -355.5 146t-124.5 401z" />
    <glyph glyph-name="Dcaron" unicode="&#x10e;" horiz-adv-x="1413" 
d="M733 1499h-53l-240 193l49 41l218 -160l217 160l49 -41zM666 1362q132 0 237.5 -34.5t177 -95.5t119 -147t69 -185.5t21.5 -215.5q0 -118 -21.5 -218.5t-69 -187.5t-119 -148t-177 -95.5t-237.5 -34.5h-512v1362h512zM659 74q121 0 214 29.5t154 81.5t99.5 129.5
t55 167.5t16.5 202q0 140 -26.5 246t-87 189t-167.5 126t-258 43h-419v-1214h419z" />
    <glyph glyph-name="dcaron" unicode="&#x10f;" horiz-adv-x="1363" 
d="M1178 1536h120l-20 -379h-80zM967 797v637h82v-1434h-82v231q-53 -127 -156 -194.5t-248 -67.5q-223 0 -336.5 143t-113.5 402q0 261 113.5 403t336.5 142q145 0 248 -67.5t156 -194.5zM575 41q85 0 154.5 26.5t124 81t84 147t29.5 216.5q0 242 -107.5 358.5
t-284.5 116.5q-184 0 -280 -118t-96 -355t96 -355t280 -118z" />
    <glyph glyph-name="Dcroat" unicode="&#x110;" horiz-adv-x="1597" 
d="M850 1362q132 0 238 -34.5t177.5 -95.5t119 -147t69 -185.5t21.5 -215.5q0 -148 -35 -269t-107.5 -215.5t-195.5 -147t-287 -52.5h-512v643h-256v74h256v645h512zM844 74q121 0 214 29.5t153.5 81.5t99.5 129.5t55 167.5t16 202t-16 201t-54.5 166t-99 128t-153.5 80
t-215 29h-420v-571h477v-74h-477v-569h420z" />
    <glyph glyph-name="dcroat" unicode="&#x111;" horiz-adv-x="1247" 
d="M1247 1286v-69h-198v-1217h-82v231q-53 -127 -156 -194.5t-248 -67.5q-223 0 -336.5 143t-113.5 402q0 261 113.5 403t336.5 142q145 0 248 -67.5t156 -194.5v420h-396v69h396v148h82v-148h198zM575 41q85 0 154.5 26.5t124 81t84 147t29.5 216.5q0 242 -107.5 358.5
t-284.5 116.5q-184 0 -280 -118t-96 -355t96 -355t280 -118z" />
    <glyph glyph-name="Emacron" unicode="&#x112;" horiz-adv-x="1263" 
d="M952 1653v-70h-676v70h676zM240 74h884v-74h-970v1362h964v-74h-878v-543h817v-73h-817v-598z" />
    <glyph glyph-name="emacron" unicode="&#x113;" horiz-adv-x="1155" 
d="M918 1362v-70h-676v70h676zM975 328h76q-11 -72 -42 -134.5t-84.5 -114.5t-138 -82t-190.5 -30q-239 0 -364.5 148t-125.5 399q0 246 127.5 394.5t362.5 148.5q207 0 330 -127t123 -357q0 -37 -2 -55h-854v-4q0 -236 104.5 -355.5t302.5 -119.5q167 0 259 76t116 213z
M596 985q-178 0 -281 -99.5t-120 -297.5h768q-3 209 -102 303t-265 94z" />
    <glyph glyph-name="Edotaccent" unicode="&#x116;" horiz-adv-x="1263" 
d="M674 1665v-139h-119v139h119zM240 74h884v-74h-970v1362h964v-74h-878v-543h817v-73h-817v-598z" />
    <glyph glyph-name="edotaccent" unicode="&#x117;" horiz-adv-x="1155" 
d="M639 1362v-139h-119v139h119zM975 328h76q-11 -72 -42 -134.5t-84.5 -114.5t-138 -82t-190.5 -30q-239 0 -364.5 148t-125.5 399q0 246 127.5 394.5t362.5 148.5q207 0 330 -127t123 -357q0 -37 -2 -55h-854v-4q0 -236 104.5 -355.5t302.5 -119.5q167 0 259 76t116 213z
M596 985q-178 0 -281 -99.5t-120 -297.5h768q-3 209 -102 303t-265 94z" />
    <glyph glyph-name="Eogonek" unicode="&#x118;" horiz-adv-x="1263" 
d="M1040 -250q45 0 88 14v-69q-46 -14 -102 -14q-96 0 -151.5 48t-55.5 140q0 76 39 131h-704v1362h964v-74h-878v-543h817v-73h-817v-598h884v-74h-196q-41 -51 -41 -119q0 -64 41 -97.5t112 -33.5z" />
    <glyph glyph-name="eogonek" unicode="&#x119;" horiz-adv-x="1155" 
d="M809 -119q0 -64 41.5 -97.5t112.5 -33.5q45 0 88 14v-69q-46 -14 -103 -14q-96 0 -151.5 48t-55.5 140q0 72 35 125q-89 -27 -180 -27q-239 0 -364.5 148t-125.5 399q0 246 127.5 394.5t362.5 148.5q207 0 330 -127t123 -357q0 -37 -2 -55h-854v-4q0 -236 104.5 -355.5
t302.5 -119.5q167 0 259 76t116 213h76q-27 -185 -168 -281l6 -6q-80 -68 -80 -160zM596 985q-178 0 -281 -99.5t-120 -297.5h768q-3 209 -102 303t-265 94z" />
    <glyph glyph-name="Ecaron" unicode="&#x11a;" horiz-adv-x="1263" 
d="M641 1499h-53l-240 193l49 41l217 -160l217 160l50 -41zM240 74h884v-74h-970v1362h964v-74h-878v-543h817v-73h-817v-598z" />
    <glyph glyph-name="ecaron" unicode="&#x11b;" horiz-adv-x="1155" 
d="M606 1149h-53l-240 192l49 41l218 -159l217 159l49 -41zM975 328h76q-11 -72 -42 -134.5t-84.5 -114.5t-138 -82t-190.5 -30q-239 0 -364.5 148t-125.5 399q0 246 127.5 394.5t362.5 148.5q207 0 330 -127t123 -357q0 -37 -2 -55h-854v-4q0 -236 104.5 -355.5
t302.5 -119.5q167 0 259 76t116 213zM596 985q-178 0 -281 -99.5t-120 -297.5h768q-3 209 -102 303t-265 94z" />
    <glyph glyph-name="Gbreve" unicode="&#x11e;" horiz-adv-x="1581" 
d="M578 1710h51q8 -58 44 -92.5t97 -34.5t97 34.5t44 92.5h52q-2 -79 -49.5 -136.5t-143.5 -57.5t-143 57.5t-49 136.5zM766 -35q-159 0 -283 51.5t-205 146t-123 226.5t-42 295q0 329 173 522t498 193q282 0 441 -137.5t188 -403.5h-88q-33 248 -163 357.5t-378 109.5
q-287 0 -433 -157t-146 -484q0 -645 575 -645q451 0 543 541h-688v71h778v-647h-82v420q-18 -71 -39 -126t-65 -121t-101.5 -109.5t-150 -73t-209.5 -29.5z" />
    <glyph glyph-name="gbreve" unicode="&#x11f;" horiz-adv-x="1210" 
d="M606 1167q-96 0 -143 58t-49 137h51q8 -58 44 -92.5t97 -34.5t97.5 34.5t44.5 92.5h51q-2 -79 -49.5 -137t-143.5 -58zM969 1024h82v-1038q0 -101 -23.5 -175.5t-76 -130.5t-144 -84t-221.5 -28q-410 0 -443 348h78q4 -54 23.5 -100t59 -87.5t110.5 -65t168 -23.5
q208 0 297.5 80.5t89.5 259.5v276q-103 -242 -406 -242q-450 0 -450 523q0 518 450 518q303 0 406 -242v211zM580 86q179 0 284 108t105 343q0 234 -104.5 340t-284.5 106q-381 0 -381 -446q0 -451 381 -451z" />
    <glyph glyph-name="Gdotaccent" unicode="&#x120;" horiz-adv-x="1581" 
d="M711 1526v139h118v-139h-118zM766 -35q-159 0 -283 51.5t-205 146t-123 226.5t-42 295q0 329 173 522t498 193q282 0 441 -137.5t188 -403.5h-88q-33 248 -163 357.5t-378 109.5q-287 0 -433 -157t-146 -484q0 -645 575 -645q451 0 543 541h-688v71h778v-647h-82v420
q-18 -71 -39 -126t-65 -121t-101.5 -109.5t-150 -73t-209.5 -29.5z" />
    <glyph glyph-name="gdotaccent" unicode="&#x121;" horiz-adv-x="1210" 
d="M666 1362v-139h-119v139h119zM969 1024h82v-1038q0 -101 -23.5 -175.5t-76 -130.5t-144 -84t-221.5 -28q-410 0 -443 348h78q4 -54 23.5 -100t59 -87.5t110.5 -65t168 -23.5q208 0 297.5 80.5t89.5 259.5v276q-103 -242 -406 -242q-450 0 -450 523q0 518 450 518
q303 0 406 -242v211zM580 86q179 0 284 108t105 343q0 234 -104.5 340t-284.5 106q-381 0 -381 -446q0 -451 381 -451z" />
    <glyph glyph-name="uni0122" unicode="&#x122;" horiz-adv-x="1581" 
d="M766 -35q-159 0 -283 51.5t-205 146t-123 226.5t-42 295q0 329 173 522t498 193q282 0 441 -137.5t188 -403.5h-88q-33 248 -163 357.5t-378 109.5q-287 0 -433 -157t-146 -484q0 -645 575 -645q451 0 543 541h-688v71h778v-647h-82v420q-18 -71 -39 -126t-65 -121
t-101.5 -109.5t-150 -73t-209.5 -29.5zM694 -244v125h152v-235q0 -86 -28 -115t-113 -29h-11v82h80v172h-80z" />
    <glyph glyph-name="uni0123" unicode="&#x123;" horiz-adv-x="1210" 
d="M682 1305v-125h-152v235q0 86 28 115t114 29h10v-82h-80v-172h80zM969 1024h82v-1038q0 -101 -23.5 -175.5t-76 -130.5t-144 -84t-221.5 -28q-410 0 -443 348h78q4 -54 23.5 -100t59 -87.5t110.5 -65t168 -23.5q208 0 297.5 80.5t89.5 259.5v276q-103 -242 -406 -242
q-450 0 -450 523q0 518 450 518q303 0 406 -242v211zM580 86q179 0 284 108t105 343q0 234 -104.5 340t-284.5 106q-381 0 -381 -446q0 -451 381 -451z" />
    <glyph glyph-name="Hbar" unicode="&#x126;" horiz-adv-x="1644" 
d="M1563 1114v-74h-203v-1040h-86v670h-909v-670h-86v1040h-197v74h197v248h86v-248h909v248h86v-248h203zM1274 743v297h-909v-297h909z" />
    <glyph glyph-name="hbar" unicode="&#x127;" horiz-adv-x="1208" 
d="M715 1057q350 0 350 -377v-680h-82v662q0 171 -69 247t-214 76q-137 0 -232 -84.5t-141 -235t-46 -356.5v-309h-82v1217h-199v69h199v148h82v-148h395v-69h-395v-543q50 204 160.5 293.5t273.5 89.5z" />
    <glyph glyph-name="Imacron" unicode="&#x12a;" horiz-adv-x="991" 
d="M834 1653v-70h-676v70h676zM848 1288h-309v-1214h309v-74h-705v74h310v1214h-310v74h705v-74z" />
    <glyph glyph-name="imacron" unicode="&#x12b;" horiz-adv-x="409" 
d="M-133 1362h676v-70h-676v70zM164 0v1024h82v-1024h-82z" />
    <glyph glyph-name="Iogonek" unicode="&#x12e;" horiz-adv-x="991" 
d="M797 -250q45 0 88 14v-69q-46 -14 -103 -14q-96 0 -151.5 48t-55.5 140q0 76 39 131h-471v74h310v1214h-310v74h705v-74h-309v-1214h309v-74h-164q-41 -51 -41 -119q0 -64 41.5 -97.5t112.5 -33.5z" />
    <glyph glyph-name="iogonek" unicode="&#x12f;" horiz-adv-x="409" 
d="M264 1362v-139h-119v139h119zM317 -250q46 0 89 14v-69q-46 -14 -103 -14q-96 0 -151.5 48t-55.5 140q0 97 68 168v987h82v-1024h-41q-41 -51 -41 -119q0 -64 41 -97.5t112 -33.5z" />
    <glyph glyph-name="Idotaccent" unicode="&#x130;" horiz-adv-x="991" 
d="M555 1665v-139h-119v139h119zM848 1288h-309v-1214h309v-74h-705v74h310v1214h-310v74h705v-74z" />
    <glyph glyph-name="dotlessi" unicode="&#x131;" horiz-adv-x="409" 
d="M164 0v1024h82v-1024h-82z" />
    <glyph glyph-name="uni0136" unicode="&#x136;" horiz-adv-x="1300" 
d="M623 776l575 -772v-4h-108l-525 715l-325 -353v-362h-86v1362h86v-885l804 885h117zM575 -244v125h152v-235q0 -86 -28 -115t-113 -29h-11v82h80v172h-80z" />
    <glyph glyph-name="uni0137" unicode="&#x137;" horiz-adv-x="1081" 
d="M539 588l501 -588h-110l-441 539l-243 -238v-301h-82v1434h82v-1031l82 82l555 539h104v-2zM465 -244v125h151v-235q0 -86 -28 -115t-113 -29h-10v82h80v172h-80z" />
    <glyph glyph-name="Lacute" unicode="&#x139;" horiz-adv-x="1097" 
d="M393 1729l33 -80l-444 -160l-19 49zM240 74h755v-74h-841v1362h86v-1288z" />
    <glyph glyph-name="lacute" unicode="&#x13a;" horiz-adv-x="393" 
d="M426 1720l-444 -159l-19 49l430 190zM156 0v1434h82v-1434h-82z" />
    <glyph glyph-name="uni013B" unicode="&#x13b;" horiz-adv-x="1097" 
d="M240 74h755v-74h-841v1362h86v-1288zM471 -244v125h152v-235q0 -86 -28 -115t-114 -29h-10v82h80v172h-80z" />
    <glyph glyph-name="uni013C" unicode="&#x13c;" horiz-adv-x="393" 
d="M156 0v1434h82v-1434h-82zM121 -244v125h151v-235q0 -86 -28 -115t-113 -29h-10v82h80v172h-80z" />
    <glyph glyph-name="Lcaron" unicode="&#x13d;" horiz-adv-x="1097" 
d="M616 1157h-79l-21 379h121zM240 74h755v-74h-841v1362h86v-1288z" />
    <glyph glyph-name="lcaron" unicode="&#x13e;" horiz-adv-x="555" 
d="M369 1536h120l-20 -379h-80zM156 0v1434h82v-1434h-82z" />
    <glyph glyph-name="Lslash" unicode="&#x141;" horiz-adv-x="1286" 
d="M428 74h756v-74h-842v573l-260 -100v78l260 100v711h86v-678l473 184v-77l-473 -185v-532z" />
    <glyph glyph-name="lslash" unicode="&#x142;" horiz-adv-x="778" 
d="M696 848v-78l-266 -119v-651h-82v614l-266 -120v77l266 121v742h82v-705z" />
    <glyph glyph-name="Nacute" unicode="&#x143;" horiz-adv-x="1388" 
d="M924 1649l-445 -160l-18 49l430 191zM1149 1362h86v-1362h-127l-809 1182q-35 51 -59 100v-1282h-86v1362h127l804 -1178q41 -59 64 -102v1280z" />
    <glyph glyph-name="nacute" unicode="&#x144;" horiz-adv-x="1173" 
d="M817 1327l-444 -160l-19 50l430 190zM680 1057q350 0 350 -377v-680h-82v662q0 171 -68.5 247t-213.5 76q-137 0 -232.5 -84.5t-141.5 -235t-46 -356.5v-309h-82v1024h82v-350q50 204 160.5 293.5t273.5 89.5z" />
    <glyph glyph-name="uni0145" unicode="&#x145;" horiz-adv-x="1388" 
d="M1149 1362h86v-1362h-127l-809 1182q-35 51 -59 100v-1282h-86v1362h127l804 -1178q41 -59 64 -102v1280zM618 -244v125h152v-235q0 -86 -28 -115t-113 -29h-11v82h80v172h-80z" />
    <glyph glyph-name="uni0146" unicode="&#x146;" horiz-adv-x="1173" 
d="M680 1057q350 0 350 -377v-680h-82v662q0 171 -68.5 247t-213.5 76q-137 0 -232.5 -84.5t-141.5 -235t-46 -356.5v-309h-82v1024h82v-350q50 204 160.5 293.5t273.5 89.5zM512 -244v125h152v-235q0 -86 -28 -115t-114 -29h-10v82h80v172h-80z" />
    <glyph glyph-name="Ncaron" unicode="&#x147;" horiz-adv-x="1388" 
d="M721 1499h-53l-240 193l49 41l217 -160l217 160l50 -41zM1149 1362h86v-1362h-127l-809 1182q-35 51 -59 100v-1282h-86v1362h127l804 -1178q41 -59 64 -102v1280z" />
    <glyph glyph-name="ncaron" unicode="&#x148;" horiz-adv-x="1173" 
d="M614 1149h-53l-239 192l49 41l217 -159l217 159l49 -41zM680 1057q350 0 350 -377v-680h-82v662q0 171 -68.5 247t-213.5 76q-137 0 -232.5 -84.5t-141.5 -235t-46 -356.5v-309h-82v1024h82v-350q50 204 160.5 293.5t273.5 89.5z" />
    <glyph glyph-name="Eng" unicode="&#x14a;" horiz-adv-x="1388" 
d="M1149 1362h86v-1657q0 -61 -27.5 -88t-95.5 -27h-317v70h354v340h-41l-809 1182q-35 51 -59 100v-1282h-86v1362h127l804 -1178q41 -59 64 -102v1280z" />
    <glyph glyph-name="eng" unicode="&#x14b;" horiz-adv-x="1173" 
d="M672 1057q177 0 267.5 -90.5t90.5 -286.5v-975q0 -61 -27.5 -88t-95.5 -27h-317v70h358v1002q0 177 -70 250t-221 73q-201 0 -306 -181t-105 -495v-309h-82v1024h82v-346q49 201 157.5 290t268.5 89z" />
    <glyph glyph-name="Omacron" unicode="&#x14c;" horiz-adv-x="1536" 
d="M430 1653h676v-70h-676v70zM768 -35q-164 0 -289.5 51.5t-205 146.5t-120 226t-40.5 295q0 161 40.5 291.5t120 225.5t205.5 146.5t289 51.5t289 -52t205.5 -147t120 -225t40.5 -291q0 -163 -40.5 -294t-120 -226.5t-205 -147t-289.5 -51.5zM205 684q0 -325 140 -485
t423 -160t423 160t140 485q0 323 -140 482t-423 159t-423 -159t-140 -482z" />
    <glyph glyph-name="omacron" unicode="&#x14d;" horiz-adv-x="1191" 
d="M258 1362h676v-70h-676v70zM596 -33q-237 0 -363.5 148.5t-126.5 398.5q0 162 54 282.5t166 190.5t270 70q236 0 362.5 -148.5t126.5 -394.5q0 -163 -54 -285t-165.5 -192t-269.5 -70zM193 514q0 -235 105 -355t298 -120t298 120t105 355t-105 353t-298 118t-298 -118
t-105 -353z" />
    <glyph glyph-name="Ohungarumlaut" unicode="&#x150;" horiz-adv-x="1536" 
d="M827 1706l-305 -231l-33 38l281 256zM1163 1706l-305 -231l-33 38l281 256zM768 -35q-164 0 -289.5 51.5t-205 146.5t-120 226t-40.5 295q0 161 40.5 291.5t120 225.5t205.5 146.5t289 51.5t289 -52t205.5 -147t120 -225t40.5 -291q0 -163 -40.5 -294t-120 -226.5
t-205 -147t-289.5 -51.5zM205 684q0 -325 140 -485t423 -160t423 160t140 485q0 323 -140 482t-423 159t-423 -159t-140 -482z" />
    <glyph glyph-name="ohungarumlaut" unicode="&#x151;" horiz-adv-x="1191" 
d="M637 1378l-305 -231l-33 39l281 256zM973 1378l-305 -231l-33 39l280 256zM596 -33q-237 0 -363.5 148.5t-126.5 398.5q0 162 54 282.5t166 190.5t270 70q236 0 362.5 -148.5t126.5 -394.5q0 -163 -54 -285t-165.5 -192t-269.5 -70zM193 514q0 -235 105 -355t298 -120
t298 120t105 355t-105 353t-298 118t-298 -118t-105 -353z" />
    <glyph glyph-name="OE" unicode="&#x152;" horiz-adv-x="2441" 
d="M1417 74h885v-74h-971v317q-135 -352 -563 -352q-164 0 -289.5 51.5t-205 146.5t-120 226t-40.5 295q0 161 40.5 291.5t120 225.5t205.5 146.5t289 51.5q428 0 563 -352v315h965v-74h-879v-543h817v-73h-817v-598zM768 39q283 0 423 160t140 485q0 323 -140 482t-423 159
t-423 -159t-140 -482q0 -325 140 -485t423 -160z" />
    <glyph glyph-name="oe" unicode="&#x153;" horiz-adv-x="2037" 
d="M1858 328h75q-11 -72 -42 -134.5t-84 -114.5t-137.5 -82t-190.5 -30q-170 0 -282 78t-161 219q-49 -141 -160 -219t-280 -78q-237 0 -363.5 148.5t-126.5 398.5q0 162 54 282.5t166 190.5t270 70q169 0 280 -78t162 -219q49 140 160.5 218.5t280.5 78.5q207 0 329.5 -127
t122.5 -357q0 -37 -2 -55h-854v-4q0 -236 105 -355.5t303 -119.5q167 0 259 76t116 213zM596 39q193 0 298 120t105 355t-105 353t-298 118t-298 -118t-105 -353t105 -355t298 -120zM1479 985q-178 0 -281.5 -99.5t-120.5 -297.5h768q-3 209 -101.5 303t-264.5 94z" />
    <glyph glyph-name="Racute" unicode="&#x154;" horiz-adv-x="1286" 
d="M870 1649l-444 -160l-18 49l430 191zM1094 377v-174q0 -108 20 -203h-86q-20 82 -20 203v162q0 146 -74.5 216t-231.5 70h-462v-651h-86v1362h598q198 0 291.5 -89t93.5 -251q0 -129 -74 -222.5t-189 -113.5q220 -39 220 -309zM240 723h481q164 0 243.5 76t79.5 211
q0 151 -73 214.5t-230 63.5h-501v-565z" />
    <glyph glyph-name="racute" unicode="&#x155;" horiz-adv-x="759" 
d="M608 1327l-444 -160l-19 50l430 190zM649 1032h49v-86l-28 2q-105 8 -183 -23.5t-123 -86.5t-72.5 -139t-36.5 -166t-9 -183v-350h-82v1024h82v-334q88 342 403 342z" />
    <glyph glyph-name="uni0156" unicode="&#x156;" horiz-adv-x="1286" 
d="M1094 377v-174q0 -108 20 -203h-86q-20 82 -20 203v162q0 146 -74.5 216t-231.5 70h-462v-651h-86v1362h598q198 0 291.5 -89t93.5 -251q0 -129 -74 -222.5t-189 -113.5q220 -39 220 -309zM240 723h481q164 0 243.5 76t79.5 211q0 151 -73 214.5t-230 63.5h-501v-565z
M565 -244v125h152v-235q0 -86 -28 -115t-114 -29h-10v82h80v172h-80z" />
    <glyph glyph-name="uni0157" unicode="&#x157;" horiz-adv-x="759" 
d="M649 1032h49v-86l-28 2q-105 8 -183 -23.5t-123 -86.5t-72.5 -139t-36.5 -166t-9 -183v-350h-82v1024h82v-334q88 342 403 342zM129 -244v125h152v-235q0 -86 -28 -115t-114 -29h-10v82h80v172h-80z" />
    <glyph glyph-name="Rcaron" unicode="&#x158;" horiz-adv-x="1286" 
d="M668 1499h-54l-239 193l49 41l217 -160l217 160l49 -41zM1094 377v-174q0 -108 20 -203h-86q-20 82 -20 203v162q0 146 -74.5 216t-231.5 70h-462v-651h-86v1362h598q198 0 291.5 -89t93.5 -251q0 -129 -74 -222.5t-189 -113.5q220 -39 220 -309zM240 723h481
q164 0 243.5 76t79.5 211q0 151 -73 214.5t-230 63.5h-501v-565z" />
    <glyph glyph-name="rcaron" unicode="&#x159;" horiz-adv-x="759" 
d="M406 1149h-54l-239 192l49 41l217 -159l217 159l49 -41zM649 1032h49v-86l-28 2q-105 8 -183 -23.5t-123 -86.5t-72.5 -139t-36.5 -166t-9 -183v-350h-82v1024h82v-334q88 342 403 342z" />
    <glyph glyph-name="Sacute" unicode="&#x15a;" horiz-adv-x="1339" 
d="M899 1649l-444 -160l-19 49l430 191zM123 487h86q0 -442 498 -442q218 0 318.5 72.5t100.5 220.5q0 134 -63 199.5t-221 93.5l-334 57q-179 31 -254.5 112t-75.5 224q0 78 30.5 145t89 119t153.5 81.5t215 29.5q233 0 374 -117t154 -336h-86q-24 379 -442 379
q-204 0 -301 -79.5t-97 -221.5q0 -48 10 -84.5t35.5 -72.5t77 -61t127.5 -38l352 -59q187 -32 267 -115t80 -240q0 -190 -122.5 -286.5t-387.5 -96.5q-157 0 -272 39t-182 110t-98.5 162t-31.5 205z" />
    <glyph glyph-name="sacute" unicode="&#x15b;" horiz-adv-x="1056" 
d="M748 1327l-445 -160l-18 50l430 190zM94 344h76q5 -55 17.5 -97t40 -82.5t69.5 -67t110 -42.5t158 -16q138 0 218.5 53.5t80.5 165.5q0 95 -59.5 146.5t-188.5 68.5l-204 27q-285 36 -285 270q0 133 99 211t278 78q197 0 303 -90.5t115 -241.5h-76q-3 41 -15.5 77.5
t-38.5 70.5t-64 58.5t-95.5 39t-128.5 14.5q-295 0 -295 -217q0 -174 211 -199l211 -26q157 -20 236 -84.5t79 -200.5q0 -145 -104 -219t-277 -74q-238 0 -350 97.5t-121 279.5z" />
    <glyph glyph-name="Scedilla" unicode="&#x15e;" horiz-adv-x="1339" 
d="M1217 354q0 -183 -115 -280t-363 -103l47 -168q34 -122 -94 -122h-145v69h176l-59 221q-145 6 -251.5 47t-168.5 111.5t-91.5 159t-29.5 198.5h86q0 -442 498 -442q218 0 318.5 72.5t100.5 220.5q0 134 -63 199.5t-221 93.5l-334 57q-179 31 -254.5 112t-75.5 224
q0 78 30.5 145t89 119t153.5 81.5t215 29.5q233 0 374 -117t154 -336h-86q-24 379 -442 379q-204 0 -301 -79.5t-97 -221.5q0 -48 10 -84.5t35.5 -72.5t77 -61t127.5 -38l352 -59q187 -32 267 -115t80 -240z" />
    <glyph glyph-name="scedilla" unicode="&#x15f;" horiz-adv-x="1056" 
d="M946 260q0 -141 -97 -214.5t-261 -78.5l47 -164q34 -122 -94 -122h-146v69h176l-59 219q-210 10 -309.5 106.5t-108.5 268.5h76q5 -55 17.5 -97t40 -82.5t69.5 -67t110 -42.5t158 -16q138 0 218.5 53.5t80.5 165.5q0 95 -59.5 146.5t-188.5 68.5l-204 27
q-285 36 -285 270q0 133 99 211t278 78q197 0 303 -90.5t115 -241.5h-76q-3 41 -15.5 77.5t-38.5 70.5t-64 58.5t-95.5 39t-128.5 14.5q-295 0 -295 -217q0 -174 211 -199l211 -26q157 -20 236 -84.5t79 -200.5z" />
    <glyph glyph-name="Scaron" unicode="&#x160;" horiz-adv-x="1339" 
d="M403 1692l50 41l217 -160l217 160l49 -41l-240 -193h-53zM123 487h86q0 -442 498 -442q218 0 318.5 72.5t100.5 220.5q0 134 -63 199.5t-221 93.5l-334 57q-179 31 -254.5 112t-75.5 224q0 78 30.5 145t89 119t153.5 81.5t215 29.5q233 0 374 -117t154 -336h-86
q-24 379 -442 379q-204 0 -301 -79.5t-97 -221.5q0 -48 10 -84.5t35.5 -72.5t77 -61t127.5 -38l352 -59q187 -32 267 -115t80 -240q0 -190 -122.5 -286.5t-387.5 -96.5q-157 0 -272 39t-182 110t-98.5 162t-31.5 205z" />
    <glyph glyph-name="scaron" unicode="&#x161;" horiz-adv-x="1056" 
d="M252 1341l49 41l217 -159l217 159l49 -41l-239 -192h-53zM94 344h76q5 -55 17.5 -97t40 -82.5t69.5 -67t110 -42.5t158 -16q138 0 218.5 53.5t80.5 165.5q0 95 -59.5 146.5t-188.5 68.5l-204 27q-285 36 -285 270q0 133 99 211t278 78q197 0 303 -90.5t115 -241.5h-76
q-3 41 -15.5 77.5t-38.5 70.5t-64 58.5t-95.5 39t-128.5 14.5q-295 0 -295 -217q0 -174 211 -199l211 -26q157 -20 236 -84.5t79 -200.5q0 -145 -104 -219t-277 -74q-238 0 -350 97.5t-121 279.5z" />
    <glyph glyph-name="uni0162" unicode="&#x162;" horiz-adv-x="1253" 
d="M672 1288v-1292h-4l53 -193q34 -122 -94 -122h-146v69h176l-65 246h-6v1292h-525v74h1131v-74h-520z" />
    <glyph glyph-name="uni0163" unicode="&#x163;" horiz-adv-x="761" 
d="M690 954h-358v-884h358v-70h-207l56 -197q34 -122 -95 -122h-145v69h176l-67 250h-35q-68 0 -95.5 27t-27.5 88v839h-199v60l205 10l16 217h60v-217h358v-70z" />
    <glyph glyph-name="Tcaron" unicode="&#x164;" horiz-adv-x="1253" 
d="M653 1499h-53l-240 193l50 41l217 -160l217 160l49 -41zM1192 1362v-74h-520v-1292h-86v1292h-525v74h1131z" />
    <glyph glyph-name="tcaron" unicode="&#x165;" horiz-adv-x="761" 
d="M537 1536h120l-20 -379h-80zM373 0q-68 0 -95.5 27t-27.5 88v839h-199v60l205 10l16 217h60v-217h358v-70h-358v-884h358v-70h-317z" />
    <glyph glyph-name="Tbar" unicode="&#x166;" horiz-adv-x="1273" 
d="M1212 750v-74h-540v-680h-86v680h-504v74h504v538h-525v74h1131v-74h-520v-538h540z" />
    <glyph glyph-name="tbar" unicode="&#x167;" horiz-adv-x="761" 
d="M690 954h-358v-211h358v-69h-358v-604h358v-70h-317q-68 0 -95.5 27t-27.5 88v559h-199v69h199v211h-199v60l205 10l16 217h60v-217h358v-70z" />
    <glyph glyph-name="Umacron" unicode="&#x16a;" horiz-adv-x="1335" 
d="M330 1653h676v-70h-676v70zM143 471v891h86v-889q0 -224 106 -328t333 -104t332.5 104t105.5 328v889h86v-891q0 -247 -125 -375.5t-399 -128.5q-275 0 -400 128t-125 376z" />
    <glyph glyph-name="umacron" unicode="&#x16b;" horiz-adv-x="1165" 
d="M922 1362v-70h-676v70h676zM920 1024h81v-1024h-81v348q-47 -203 -153 -292t-265 -89q-177 0 -268 90.5t-91 286.5v680h82v-662q0 -126 33 -198.5t94.5 -100.5t163.5 -28q134 0 226 86t135 236.5t43 357.5v309z" />
    <glyph glyph-name="Uring" unicode="&#x16e;" horiz-adv-x="1335" 
d="M668 1473q-64 0 -102 39.5t-38 97.5q0 56 38 95.5t102 39.5t101.5 -39.5t37.5 -95.5q0 -58 -37.5 -97.5t-101.5 -39.5zM588 1610q0 -37 23.5 -60.5t56.5 -23.5t56.5 23.5t23.5 60.5t-23.5 59.5t-56.5 22.5t-56.5 -22.5t-23.5 -59.5zM143 471v891h86v-889q0 -224 106 -328
t333 -104t332.5 104t105.5 328v889h86v-891q0 -247 -125 -375.5t-399 -128.5q-275 0 -400 128t-125 376z" />
    <glyph glyph-name="uring" unicode="&#x16f;" horiz-adv-x="1165" 
d="M584 1143q-64 0 -102 39.5t-38 97.5q0 56 38 95.5t102 39.5t101.5 -39.5t37.5 -95.5q0 -58 -37.5 -97.5t-101.5 -39.5zM584 1362q-33 0 -56.5 -22.5t-23.5 -59.5t23.5 -60.5t56.5 -23.5t56.5 23.5t23.5 60.5t-23.5 59.5t-56.5 22.5zM920 1024h81v-1024h-81v348
q-47 -203 -153 -292t-265 -89q-177 0 -268 90.5t-91 286.5v680h82v-662q0 -126 33 -198.5t94.5 -100.5t163.5 -28q134 0 226 86t135 236.5t43 357.5v309z" />
    <glyph glyph-name="Uhungarumlaut" unicode="&#x170;" horiz-adv-x="1335" 
d="M727 1706l-305 -231l-33 38l281 256zM1063 1706l-305 -231l-33 38l281 256zM143 471v891h86v-889q0 -224 106 -328t333 -104t332.5 104t105.5 328v889h86v-891q0 -247 -125 -375.5t-399 -128.5q-275 0 -400 128t-125 376z" />
    <glyph glyph-name="uhungarumlaut" unicode="&#x171;" horiz-adv-x="1165" 
d="M625 1378l-306 -231l-32 39l280 256zM655 1147l-32 39l280 256l58 -64zM920 1024h81v-1024h-81v348q-47 -203 -153 -292t-265 -89q-177 0 -268 90.5t-91 286.5v680h82v-662q0 -126 33 -198.5t94.5 -100.5t163.5 -28q134 0 226 86t135 236.5t43 357.5v309z" />
    <glyph glyph-name="Uogonek" unicode="&#x172;" horiz-adv-x="1335" 
d="M993 39q-78 -66 -78 -158q0 -64 41.5 -97.5t112.5 -33.5q45 0 88 14v-69q-46 -14 -102 -14q-96 0 -151.5 48t-55.5 140q0 67 33 125q-89 -27 -213 -27q-275 0 -400 128t-125 376v891h86v-889q0 -224 106 -328t333 -104t332.5 104t105.5 328v889h86v-891q0 -315 -199 -432
z" />
    <glyph glyph-name="uogonek" unicode="&#x173;" horiz-adv-x="1165" 
d="M1073 -250q45 0 88 14v-69q-46 -14 -102 -14q-96 0 -151.5 48t-55.5 140q0 97 68 168v311q-47 -203 -153 -292t-265 -89q-177 0 -268 90.5t-91 286.5v680h82v-662q0 -126 33 -198.5t94.5 -100.5t163.5 -28q134 0 226 86t135 236.5t43 357.5v309h81v-1024h-40
q-41 -51 -41 -119q0 -64 41 -97.5t112 -33.5z" />
    <glyph glyph-name="Wcircumflex" unicode="&#x174;" horiz-adv-x="1976" 
d="M989 1655l-217 -160l-49 41l240 193h53l239 -193l-49 -41zM1772 1362h86l-338 -1362h-138l-393 1292l-395 -1292h-137l-338 1362h90l319 -1292l396 1292h133l395 -1292z" />
    <glyph glyph-name="wcircumflex" unicode="&#x175;" horiz-adv-x="1765" 
d="M883 1288l-217 -160l-50 41l240 193h53l240 -193l-49 -41zM1608 1024h86l-322 -1024h-121l-368 930l-371 -930h-119l-321 1024h90l293 -958l379 958h98l379 -958z" />
    <glyph glyph-name="Ycircumflex" unicode="&#x176;" horiz-adv-x="1226" 
d="M614 1655l-217 -160l-49 41l240 193h53l240 -193l-50 -41zM1057 1362h98l-500 -830v-532h-86v532l-497 830h102l375 -639l65 -121q9 17 20 37.5t25.5 45t22.5 38.5z" />
    <glyph glyph-name="ycircumflex" unicode="&#x177;" horiz-adv-x="1116" 
d="M555 1288l-217 -160l-49 41l239 193h54l239 -193l-49 -41zM973 1024h86l-590 -1356q-19 -44 -38 -61t-60 -17h-230v70h244l145 340h-22l-440 1024h90l389 -905l18 -49l17 49z" />
    <glyph glyph-name="Ydieresis" unicode="&#x178;" horiz-adv-x="1226" 
d="M532 1665v-139h-118v139h118zM813 1665v-139h-119v139h119zM1057 1362h98l-500 -830v-532h-86v532l-497 830h102l375 -639l65 -121q9 17 20 37.5t25.5 45t22.5 38.5z" />
    <glyph glyph-name="Zacute" unicode="&#x179;" horiz-adv-x="1384" 
d="M926 1649l-445 -160l-18 49l430 191zM242 74h1020v-74h-1129v74l1020 1214h-993v74h1095v-74z" />
    <glyph glyph-name="zacute" unicode="&#x17a;" horiz-adv-x="1132" 
d="M797 1327l-445 -160l-18 50l430 190zM256 70h764v-70h-873v70l758 884h-778v70h879v-70z" />
    <glyph glyph-name="Zdotaccent" unicode="&#x17b;" horiz-adv-x="1384" 
d="M756 1665v-139h-119v139h119zM242 74h1020v-74h-1129v74l1020 1214h-993v74h1095v-74z" />
    <glyph glyph-name="zdotaccent" unicode="&#x17c;" horiz-adv-x="1132" 
d="M627 1362v-139h-119v139h119zM256 70h764v-70h-873v70l758 884h-778v70h879v-70z" />
    <glyph glyph-name="Zcaron" unicode="&#x17d;" horiz-adv-x="1384" 
d="M723 1499h-53l-240 193l49 41l217 -160l217 160l50 -41zM242 74h1020v-74h-1129v74l1020 1214h-993v74h1095v-74z" />
    <glyph glyph-name="zcaron" unicode="&#x17e;" horiz-adv-x="1132" 
d="M594 1149h-53l-240 192l49 41l217 -159l217 159l50 -41zM256 70h764v-70h-873v70l758 884h-778v70h879v-70z" />
    <glyph glyph-name="florin" unicode="&#x192;" horiz-adv-x="790" 
d="M627 1360h-191v-627h137v-69h-137v-959q0 -61 -27.5 -88t-95.5 -27h-149v74h190v1000h-137v69h137v586q0 61 27.5 88t95.5 27h150v-74z" />
    <glyph glyph-name="uni01CD" unicode="&#x1cd;" horiz-adv-x="1361" 
d="M709 1499h-54l-239 193l49 41l217 -160l217 160l49 -41zM1190 0l-158 397h-704l-158 -397h-88l539 1362h120l539 -1362h-90zM356 471h648l-324 819z" />
    <glyph glyph-name="uni01CE" unicode="&#x1ce;" horiz-adv-x="1093" 
d="M301 1341l49 41l217 -159l217 159l50 -41l-240 -192h-53zM467 -27q-67 0 -125.5 17t-106 50.5t-75 90.5t-27.5 131q0 127 77 202t234 101l269 45q97 15 133.5 43.5t36.5 94.5q0 51 -13.5 91.5t-46 75t-94.5 53.5t-151 19q-318 0 -342 -287h-78q11 165 118.5 262t301.5 97
q376 0 376 -305v-461q0 -113 17 -293h-74q-16 166 -16 258q-13 -38 -30.5 -72.5t-51.5 -75t-77 -69.5t-109.5 -48.5t-145.5 -19.5zM475 45q85 0 156 27t116.5 70t77 99t45 111.5t13.5 110.5v139q-37 -23 -74.5 -37t-114.5 -26l-227 -39q-127 -22 -187.5 -77.5t-60.5 -160.5
q0 -108 70.5 -162.5t185.5 -54.5z" />
    <glyph glyph-name="uni01CF" unicode="&#x1cf;" horiz-adv-x="991" 
d="M522 1499h-53l-240 193l50 41l217 -160l217 160l49 -41zM848 1288h-309v-1214h309v-74h-705v74h310v1214h-310v74h705v-74z" />
    <glyph glyph-name="uni01D0" unicode="&#x1d0;" horiz-adv-x="409" 
d="M-61 1341l49 41l217 -159l217 159l49 -41l-240 -192h-53zM164 0v1024h82v-1024h-82z" />
    <glyph glyph-name="uni01D1" unicode="&#x1d1;" horiz-adv-x="1536" 
d="M502 1692l49 41l217 -160l217 160l49 -41l-239 -193h-54zM768 -35q-164 0 -289.5 51.5t-205 146.5t-120 226t-40.5 295q0 161 40.5 291.5t120 225.5t205.5 146.5t289 51.5t289 -52t205.5 -147t120 -225t40.5 -291q0 -163 -40.5 -294t-120 -226.5t-205 -147t-289.5 -51.5z
M205 684q0 -325 140 -485t423 -160t423 160t140 485q0 323 -140 482t-423 159t-423 -159t-140 -482z" />
    <glyph glyph-name="uni01D2" unicode="&#x1d2;" horiz-adv-x="1191" 
d="M330 1341l49 41l217 -159l217 159l49 -41l-239 -192h-54zM596 -33q-237 0 -363.5 148.5t-126.5 398.5q0 162 54 282.5t166 190.5t270 70q236 0 362.5 -148.5t126.5 -394.5q0 -163 -54 -285t-165.5 -192t-269.5 -70zM193 514q0 -235 105 -355t298 -120t298 120t105 355
t-105 353t-298 118t-298 -118t-105 -353z" />
    <glyph glyph-name="uni01D3" unicode="&#x1d3;" horiz-adv-x="1335" 
d="M401 1692l50 41l217 -160l217 160l49 -41l-240 -193h-53zM143 471v891h86v-889q0 -224 106 -328t333 -104t332.5 104t105.5 328v889h86v-891q0 -247 -125 -375.5t-399 -128.5q-275 0 -400 128t-125 376z" />
    <glyph glyph-name="uni01D4" unicode="&#x1d4;" horiz-adv-x="1165" 
d="M610 1149h-53l-240 192l50 41l217 -159l217 159l49 -41zM920 1024h81v-1024h-81v348q-47 -203 -153 -292t-265 -89q-177 0 -268 90.5t-91 286.5v680h82v-662q0 -126 33 -198.5t94.5 -100.5t163.5 -28q134 0 226 86t135 236.5t43 357.5v309z" />
    <glyph glyph-name="uni01D5" unicode="&#x1d5;" horiz-adv-x="1335" 
d="M330 1925h676v-70h-676v70zM467 1526v139h119v-139h-119zM748 1526v139h118v-139h-118zM143 471v891h86v-889q0 -224 106 -328t333 -104t332.5 104t105.5 328v889h86v-891q0 -247 -125 -375.5t-399 -128.5q-275 0 -400 128t-125 376z" />
    <glyph glyph-name="uni01D6" unicode="&#x1d6;" horiz-adv-x="1165" 
d="M922 1700v-70h-676v70h676zM502 1223h-119v139h119v-139zM782 1223h-118v139h118v-139zM920 1024h81v-1024h-81v348q-47 -203 -153 -292t-265 -89q-177 0 -268 90.5t-91 286.5v680h82v-662q0 -126 33 -198.5t94.5 -100.5t163.5 -28q134 0 226 86t135 236.5t43 357.5v309z
" />
    <glyph glyph-name="uni01D7" unicode="&#x1d7;" horiz-adv-x="1335" 
d="M897 1921l-444 -160l-19 49l430 191zM467 1526v139h119v-139h-119zM748 1526v139h118v-139h-118zM143 471v891h86v-889q0 -224 106 -328t333 -104t332.5 104t105.5 328v889h86v-891q0 -247 -125 -375.5t-399 -128.5q-275 0 -400 128t-125 376z" />
    <glyph glyph-name="uni01D8" unicode="&#x1d8;" horiz-adv-x="1165" 
d="M813 1665l-444 -160l-19 49l430 191zM502 1223h-119v139h119v-139zM782 1223h-118v139h118v-139zM920 1024h81v-1024h-81v348q-47 -203 -153 -292t-265 -89q-177 0 -268 90.5t-91 286.5v680h82v-662q0 -126 33 -198.5t94.5 -100.5t163.5 -28q134 0 226 86t135 236.5
t43 357.5v309z" />
    <glyph glyph-name="uni01D9" unicode="&#x1d9;" horiz-adv-x="1335" 
d="M401 1964l50 41l217 -160l217 160l49 -41l-240 -192h-53zM467 1526v139h119v-139h-119zM748 1526v139h118v-139h-118zM143 471v891h86v-889q0 -224 106 -328t333 -104t332.5 104t105.5 328v889h86v-891q0 -247 -125 -375.5t-399 -128.5q-275 0 -400 128t-125 376z" />
    <glyph glyph-name="uni01DA" unicode="&#x1da;" horiz-adv-x="1165" 
d="M610 1487h-53l-240 192l50 41l217 -159l217 159l49 -41zM502 1223h-119v139h119v-139zM782 1223h-118v139h118v-139zM920 1024h81v-1024h-81v348q-47 -203 -153 -292t-265 -89q-177 0 -268 90.5t-91 286.5v680h82v-662q0 -126 33 -198.5t94.5 -100.5t163.5 -28
q134 0 226 86t135 236.5t43 357.5v309z" />
    <glyph glyph-name="uni01DB" unicode="&#x1db;" horiz-adv-x="1335" 
d="M436 1921l33 80l430 -191l-18 -49zM467 1526v139h119v-139h-119zM748 1526v139h118v-139h-118zM143 471v891h86v-889q0 -224 106 -328t333 -104t332.5 104t105.5 328v889h86v-891q0 -247 -125 -375.5t-399 -128.5q-275 0 -400 128t-125 376z" />
    <glyph glyph-name="uni01DC" unicode="&#x1dc;" horiz-adv-x="1165" 
d="M829 1554l-18 -49l-444 160l32 80zM502 1223h-119v139h119v-139zM782 1223h-118v139h118v-139zM920 1024h81v-1024h-81v348q-47 -203 -153 -292t-265 -89q-177 0 -268 90.5t-91 286.5v680h82v-662q0 -126 33 -198.5t94.5 -100.5t163.5 -28q134 0 226 86t135 236.5
t43 357.5v309z" />
    <glyph glyph-name="uni0218" unicode="&#x218;" horiz-adv-x="1339" 
d="M123 487h86q0 -442 498 -442q218 0 318.5 72.5t100.5 220.5q0 134 -63 199.5t-221 93.5l-334 57q-179 31 -254.5 112t-75.5 224q0 78 30.5 145t89 119t153.5 81.5t215 29.5q233 0 374 -117t154 -336h-86q-24 379 -442 379q-204 0 -301 -79.5t-97 -221.5q0 -48 10 -84.5
t35.5 -72.5t77 -61t127.5 -38l352 -59q187 -32 267 -115t80 -240q0 -190 -122.5 -286.5t-387.5 -96.5q-157 0 -272 39t-182 110t-98.5 162t-31.5 205zM594 -244v125h151v-235q0 -86 -28 -115t-113 -29h-10v82h80v172h-80z" />
    <glyph glyph-name="uni0219" unicode="&#x219;" horiz-adv-x="1056" 
d="M94 344h76q5 -55 17.5 -97t40 -82.5t69.5 -67t110 -42.5t158 -16q138 0 218.5 53.5t80.5 165.5q0 95 -59.5 146.5t-188.5 68.5l-204 27q-285 36 -285 270q0 133 99 211t278 78q197 0 303 -90.5t115 -241.5h-76q-3 41 -15.5 77.5t-38.5 70.5t-64 58.5t-95.5 39
t-128.5 14.5q-295 0 -295 -217q0 -174 211 -199l211 -26q157 -20 236 -84.5t79 -200.5q0 -145 -104 -219t-277 -74q-238 0 -350 97.5t-121 279.5zM442 -244v125h152v-235q0 -86 -28 -115t-113 -29h-11v82h80v172h-80z" />
    <glyph glyph-name="uni021A" unicode="&#x21a;" horiz-adv-x="1253" 
d="M61 1362h1131v-74h-520v-1292h-86v1292h-525v74zM528 -244v125h152v-235q0 -86 -28 -115t-113 -29h-11v82h80v172h-80z" />
    <glyph glyph-name="uni021B" unicode="&#x21b;" horiz-adv-x="761" 
d="M373 0q-68 0 -95.5 27t-27.5 88v839h-199v60l205 10l16 217h60v-217h358v-70h-358v-884h358v-70h-317zM346 -244v125h152v-235q0 -86 -28 -115t-114 -29h-10v82h80v172h-80z" />
    <glyph glyph-name="uni0237" unicode="&#x237;" horiz-adv-x="337" 
d="M-61 -410v70h190v1364h82v-1319q0 -61 -27.5 -88t-95.5 -27h-149z" />
    <glyph glyph-name="circumflex" unicode="&#x2c6;" horiz-adv-x="1228" 
d="M61 1169l240 193h53l240 -193l-49 -41l-217 160l-217 -160z" />
    <glyph glyph-name="caron" unicode="&#x2c7;" horiz-adv-x="1228" 
d="M174 1341l49 41l217 -159l217 159l50 -41l-240 -192h-53z" />
    <glyph glyph-name="breve" unicode="&#x2d8;" horiz-adv-x="1228" 
d="M174 1362h51q8 -58 44.5 -92.5t97.5 -34.5t97 34.5t44 92.5h51q-2 -79 -49 -137t-143 -58t-143.5 58t-49.5 137z" />
    <glyph glyph-name="dotaccent" unicode="&#x2d9;" horiz-adv-x="1228" 
d="M129 1223v139h119v-139h-119z" />
    <glyph glyph-name="ring" unicode="&#x2da;" horiz-adv-x="626" 
d="M313 1143q-64 0 -101.5 39.5t-37.5 97.5q0 56 37.5 95.5t101.5 39.5t102 -39.5t38 -95.5q0 -58 -38 -97.5t-102 -39.5zM233 1280q0 -37 23.5 -60.5t56.5 -23.5t56.5 23.5t23.5 60.5t-23.5 59.5t-56.5 22.5t-56.5 -22.5t-23.5 -59.5z" />
    <glyph glyph-name="ogonek" unicode="&#x2db;" horiz-adv-x="1228" 
d="M463 -319q-96 0 -151.5 48t-55.5 140q0 126 113 205l34 -33q-79 -67 -79 -160q0 -64 41 -97.5t112 -33.5q45 0 88 14v-69q-46 -14 -102 -14z" />
    <glyph glyph-name="tilde" unicode="&#x2dc;" horiz-adv-x="1228" 
d="M625 1206q-44 0 -92 26t-89 51.5t-67 25.5q-31 0 -43 -13t-12 -47v-39h-66v39q0 58 32 87.5t83 29.5q39 0 77.5 -16t63.5 -35t54 -35t52 -16q31 0 43.5 13t12.5 46v39h65v-39q0 -59 -31.5 -88t-82.5 -29z" />
    <glyph glyph-name="hungarumlaut" unicode="&#x2dd;" horiz-adv-x="1228" 
d="M512 1378l-305 -231l-33 39l281 256zM848 1378l-305 -231l-33 39l281 256z" />
    <glyph glyph-name="gravecomb" unicode="&#x300;" 
d="M-524 1327l32 80l431 -190l-19 -50z" />
    <glyph glyph-name="acutecomb" unicode="&#x301;" 
d="M-61 1327l-445 -160l-18 50l430 190z" />
    <glyph glyph-name="uni0302" unicode="&#x302;" 
d="M-594 1169l240 193h53l240 -193l-50 -41l-217 160l-217 -160z" />
    <glyph glyph-name="tildecomb" unicode="&#x303;" 
d="M-395 1206q-44 0 -92 26t-89 51.5t-67 25.5q-31 0 -43 -13t-12 -47v-39h-66v39q0 58 32 87.5t83 29.5q50 0 97 -25.5t85 -51t66 -25.5q31 0 43 12.5t12 46.5v39h65v-39q0 -59 -31.5 -88t-82.5 -29z" />
    <glyph glyph-name="uni0304" unicode="&#x304;" 
d="M-850 1362h676v-70h-676v70z" />
    <glyph glyph-name="uni0306" unicode="&#x306;" 
d="M-559 1362h51q8 -58 44 -92.5t97 -34.5t97.5 34.5t44.5 92.5h51q-2 -79 -49.5 -137t-143.5 -58t-143 58t-49 137z" />
    <glyph glyph-name="uni0307" unicode="&#x307;" 
d="M-248 1223v139h119v-139h-119z" />
    <glyph glyph-name="uni0308" unicode="&#x308;" 
d="M-502 1223v139h119v-139h-119zM-221 1223v139h119v-139h-119z" />
    <glyph glyph-name="uni030A" unicode="&#x30a;" 
d="M-313 1143q-64 0 -102 39.5t-38 97.5q0 56 38 95.5t102 39.5t101.5 -39.5t37.5 -95.5q0 -58 -37.5 -97.5t-101.5 -39.5zM-393 1280q0 -37 23.5 -60.5t56.5 -23.5t56.5 23.5t23.5 60.5t-23.5 59.5t-56.5 22.5t-56.5 -22.5t-23.5 -59.5z" />
    <glyph glyph-name="uni030B" unicode="&#x30b;" 
d="M-510 1378l-305 -231l-33 39l281 256zM-174 1378l-305 -231l-33 39l281 256z" />
    <glyph glyph-name="uni030C" unicode="&#x30c;" 
d="M-707 1341l50 41l217 -159l217 159l49 -41l-240 -192h-53z" />
    <glyph glyph-name="uni0312" unicode="&#x312;" 
d="M-174 1305v-125h-152v235q0 86 28 115t114 29h10v-82h-80v-172h80z" />
    <glyph glyph-name="uni0326" unicode="&#x326;" 
d="M-326 -244v125h152v-235q0 -86 -28 -115t-113 -29h-11v82h80v172h-80z" />
    <glyph glyph-name="uni0327" unicode="&#x327;" 
d="M-307 -319v69h176l-68 250h76l55 -197q34 -122 -94 -122h-145z" />
    <glyph glyph-name="uni0328" unicode="&#x328;" 
d="M-276 -319q-96 0 -151.5 48t-55.5 140q0 127 112 205l35 -33q-80 -68 -80 -160q0 -64 41.5 -97.5t112.5 -33.5q45 0 88 14v-69q-46 -14 -102 -14z" />
    <glyph glyph-name="uni0394" unicode="&#x394;" horiz-adv-x="1427" 
d="M774 1362l551 -1290v-72h-1223v72l551 1290h121zM193 74h1040l-520 1220z" />
    <glyph glyph-name="uni03A9" unicode="&#x3a9;" horiz-adv-x="1585" 
d="M113 0v72h413q-102 31 -179.5 94t-125 148t-71 186t-23.5 215q0 323 169 503.5t497 180.5t496.5 -180.5t168.5 -503.5q0 -114 -23.5 -215t-71 -186t-125 -148t-179.5 -94h414v-72h-1360zM793 74q286 0 429.5 156.5t143.5 480.5q0 320 -142.5 467t-430.5 147t-431 -147
t-143 -467q0 -324 144 -480.5t430 -156.5z" />
    <glyph glyph-name="pi" unicode="&#x3c0;" horiz-adv-x="1333" 
d="M1241 954h-297v-884h297v-70h-256q-68 0 -95.5 27t-27.5 88v839h-373v-954h-81v954h-316v70h1149v-70z" />
    <glyph glyph-name="Wgrave" unicode="&#x1e80;" horiz-adv-x="1976" 
d="M1221 1538l-19 -49l-444 160l33 80zM1772 1362h86l-338 -1362h-138l-393 1292l-395 -1292h-137l-338 1362h90l319 -1292l396 1292h133l395 -1292z" />
    <glyph glyph-name="wgrave" unicode="&#x1e81;" horiz-adv-x="1765" 
d="M1128 1217l-18 -50l-444 160l32 80zM1608 1024h86l-322 -1024h-121l-368 930l-371 -930h-119l-321 1024h90l293 -958l379 958h98l379 -958z" />
    <glyph glyph-name="Wacute" unicode="&#x1e82;" horiz-adv-x="1976" 
d="M1219 1649l-445 -160l-18 49l430 191zM1772 1362h86l-338 -1362h-138l-393 1292l-395 -1292h-137l-338 1362h90l319 -1292l396 1292h133l395 -1292z" />
    <glyph glyph-name="wacute" unicode="&#x1e83;" horiz-adv-x="1765" 
d="M1112 1327l-444 -160l-19 50l430 190zM1608 1024h86l-322 -1024h-121l-368 930l-371 -930h-119l-321 1024h90l293 -958l379 958h98l379 -958z" />
    <glyph glyph-name="Wdieresis" unicode="&#x1e84;" horiz-adv-x="1976" 
d="M907 1665v-139h-119v139h119zM1188 1665v-139h-119v139h119zM1772 1362h86l-338 -1362h-138l-393 1292l-395 -1292h-137l-338 1362h90l319 -1292l396 1292h133l395 -1292z" />
    <glyph glyph-name="wdieresis" unicode="&#x1e85;" horiz-adv-x="1765" 
d="M801 1362v-139h-119v139h119zM1081 1362v-139h-118v139h118zM1608 1024h86l-322 -1024h-121l-368 930l-371 -930h-119l-321 1024h90l293 -958l379 958h98l379 -958z" />
    <glyph glyph-name="Ygrave" unicode="&#x1ef2;" horiz-adv-x="1226" 
d="M846 1538l-19 -49l-444 160l33 80zM1057 1362h98l-500 -830v-532h-86v532l-497 830h102l375 -639l65 -121q9 17 20 37.5t25.5 45t22.5 38.5z" />
    <glyph glyph-name="ygrave" unicode="&#x1ef3;" horiz-adv-x="1116" 
d="M801 1217l-19 -50l-444 160l33 80zM973 1024h86l-590 -1356q-19 -44 -38 -61t-60 -17h-230v70h244l145 340h-22l-440 1024h90l389 -905l18 -49l17 49z" />
    <glyph glyph-name="endash" unicode="&#x2013;" horiz-adv-x="1187" 
d="M82 543h1024v-70h-1024v70z" />
    <glyph glyph-name="emdash" unicode="&#x2014;" horiz-adv-x="1597" 
d="M82 543h1434v-70h-1434v70z" />
    <glyph glyph-name="quoteleft" unicode="&#x2018;" horiz-adv-x="282" 
d="M217 1108v-125h-151v236q0 86 27.5 114.5t113.5 28.5h10v-82h-80v-172h80z" />
    <glyph glyph-name="quoteright" unicode="&#x2019;" horiz-adv-x="282" 
d="M66 1237v125h151v-236q0 -86 -27.5 -114.5t-113.5 -28.5h-10v82h79v172h-79z" />
    <glyph glyph-name="quotesinglbase" unicode="&#x201a;" horiz-adv-x="282" 
d="M66 25v125h151v-236q0 -86 -27.5 -114.5t-113.5 -28.5h-10v82h79v172h-79z" />
    <glyph glyph-name="quotedblleft" unicode="&#x201c;" horiz-adv-x="526" 
d="M217 1108v-125h-151v236q0 86 27.5 114.5t113.5 28.5h10v-82h-80v-172h80zM461 1108v-125h-152v236q0 85 28 114t114 29h10v-82h-80v-172h80z" />
    <glyph glyph-name="quotedblright" unicode="&#x201d;" horiz-adv-x="526" 
d="M66 1237v125h151v-236q0 -86 -27.5 -114.5t-113.5 -28.5h-10v82h79v172h-79zM309 1237v125h152v-236q0 -85 -28 -114t-114 -29h-10v82h80v172h-80z" />
    <glyph glyph-name="quotedblbase" unicode="&#x201e;" horiz-adv-x="282" 
d="M66 25v125h151v-236q0 -86 -27.5 -114.5t-113.5 -28.5h-10v82h79v172h-79z" />
    <glyph glyph-name="dagger" unicode="&#x2020;" horiz-adv-x="1069" 
d="M895 1190v-74h-317v-686h-86v686h-318v74h318v336h86v-336h317z" />
    <glyph glyph-name="daggerdbl" unicode="&#x2021;" horiz-adv-x="1069" 
d="M895 1137h-317v-318h317v-74h-317v-315h-86v315h-318v74h318v318h-318v73h318v316h86v-316h317v-73z" />
    <glyph glyph-name="bullet" unicode="&#x2022;" horiz-adv-x="679" 
d="M340 375q-61 0 -98 37.5t-37 99.5t36.5 98.5t98.5 36.5t98.5 -36.5t36.5 -98.5t-37 -99.5t-98 -37.5z" />
    <glyph glyph-name="ellipsis" unicode="&#x2026;" horiz-adv-x="1101" 
d="M66 0v150h151v-150h-151zM475 0v150h152v-150h-152zM885 0v150h151v-150h-151z" />
    <glyph glyph-name="perthousand" unicode="&#x2030;" horiz-adv-x="2267" 
d="M102 0v25l1321 1265h-729v-444h-526v516h1268q67 0 67 -57q0 -41 -33 -72l-1294 -1233h-74zM250 918h364v372h-364v-372zM940 0v516h526v-516h-526zM1638 0v516h527v-516h-527zM1022 72h364v374h-364v-374zM1720 72h365v374h-365v-374z" />
    <glyph glyph-name="guilsinglleft" unicode="&#x2039;" horiz-adv-x="770" 
d="M123 508v8l436 508h98l-446 -512l446 -512h-98z" />
    <glyph glyph-name="guilsinglright" unicode="&#x203a;" horiz-adv-x="770" 
d="M647 508l-436 -508h-98l446 512l-446 512h98l436 -508v-8z" />
    <glyph glyph-name="Euro" unicode="&#x20ac;" horiz-adv-x="1796" 
d="M1192 817v-69h-1028v69h180q32 273 198 427.5t455 154.5q286 0 443.5 -144t187.5 -407h-88q-24 245 -161 361t-382 116q-506 0 -561 -508h756zM1544 569h88q-8 -133 -50.5 -242t-119.5 -190.5t-195.5 -126.5t-269.5 -45q-285 0 -450 150t-201 417h-182v70h1028v-70h-756
q61 -493 561 -493q254 0 394.5 135.5t152.5 394.5z" />
    <glyph glyph-name="trademark" unicode="&#x2122;" horiz-adv-x="2695" 
d="M2542 1362v-1362h-86v1303l-545 -1303h-131l-545 1303v-1303h-86v1288h-477v-1292h-86v1292h-525v74h1246l540 -1294l541 1294h154z" />
    <glyph glyph-name="arrowleft" unicode="&#x2190;" horiz-adv-x="1617" 
d="M1516 651v-86l-1254 2l541 -530l-64 -64l-637 637l637 637l64 -63l-543 -531z" />
    <glyph glyph-name="arrowup" unicode="&#x2191;" horiz-adv-x="1480" 
d="M1378 776l-59 -57l-535 541v-1260h-88v1257l-534 -538l-60 57l639 637z" />
    <glyph glyph-name="arrowright" unicode="&#x2192;" horiz-adv-x="1617" 
d="M879 1247l637 -637l-637 -637l-64 64l541 530l-1254 -2v86l1256 2l-543 531z" />
    <glyph glyph-name="arrowdown" unicode="&#x2193;" horiz-adv-x="1480" 
d="M1319 643l59 -57l-637 -637l-639 637l60 57l534 -539v1258h88v-1260z" />
    <glyph glyph-name="uni2196" unicode="&#x2196;" horiz-adv-x="1234" 
d="M1133 55l-62 -61l-891 891l4 -762h-82v901h902v-82l-762 4z" />
    <glyph glyph-name="uni2197" unicode="&#x2197;" horiz-adv-x="1234" 
d="M231 1024h902v-901h-82l4 762l-891 -891l-62 61l891 891l-762 -4v82z" />
    <glyph glyph-name="uni2198" unicode="&#x2198;" horiz-adv-x="1234" 
d="M1051 901h82v-901h-902v82l762 -4l-891 891l62 61l891 -891z" />
    <glyph glyph-name="uni2199" unicode="&#x2199;" horiz-adv-x="1234" 
d="M1133 969l-891 -891l762 4v-82h-902v901h82l-4 -762l891 891z" />
    <glyph glyph-name="partialdiff" unicode="&#x2202;" horiz-adv-x="1161" 
d="M113 514q0 261 113.5 403t336.5 142q145 0 248 -68t156 -196q0 92 -31 182.5t-93.5 176.5t-166 161t-238.5 125l27 53q199 -73 325.5 -182t192.5 -275.5t66 -396.5q0 -149 -22.5 -264.5t-62 -191.5t-99 -124.5t-128.5 -69t-155 -20.5q-225 0 -347 144.5t-122 400.5z
M199 514q0 -237 96 -355t280 -118q85 0 154.5 26.5t124 81t84 147t29.5 216.5q0 242 -107.5 358.5t-284.5 116.5q-184 0 -280 -118t-96 -355z" />
    <glyph glyph-name="product" unicode="&#x220f;" horiz-adv-x="1345" 
d="M1182 1526v-74h-226v-1862h-86v1862h-395v-1862h-86v1862h-225v74h1018z" />
    <glyph glyph-name="summation" unicode="&#x2211;" horiz-adv-x="1282" 
d="M1118 1526v-74h-862l510 -893l-510 -895h862v-74h-954v74l510 895l-510 893v74h954z" />
    <glyph glyph-name="minus" unicode="&#x2212;" horiz-adv-x="1167" 
d="M174 543h819v-70h-819v70z" />
    <glyph glyph-name="radical" unicode="&#x221a;" horiz-adv-x="1839" 
d="M1716 1526v-74h-467l-594 -1862h-112l-379 977h92l340 -876l586 1835h534z" />
    <glyph glyph-name="infinity" unicode="&#x221e;" horiz-adv-x="1519" 
d="M451 301q-131 0 -209 82.5t-78 202.5q0 115 78.5 196.5t208.5 81.5q131 0 209.5 -81.5t78.5 -196.5q0 -120 -78 -202.5t-210 -82.5zM1067 301q-131 0 -209 82.5t-78 202.5q0 115 78.5 196.5t208.5 81.5q132 0 210.5 -81.5t78.5 -196.5q0 -120 -78.5 -202.5t-210.5 -82.5z
M236 586q0 -100 62.5 -162t152.5 -62q92 0 154.5 62t62.5 162q0 101 -62 159t-155 58q-92 0 -153.5 -58t-61.5 -159zM852 586q0 -100 62.5 -162t152.5 -62q92 0 154.5 62t62.5 162q0 101 -62 159t-155 58q-92 0 -153.5 -58t-61.5 -159z" />
    <glyph glyph-name="integral" unicode="&#x222b;" horiz-adv-x="966" 
d="M164 -410v74h192l168 1747q6 63 31.5 89t91.5 26h156v-74h-193l-168 -1747q-6 -63 -31.5 -89t-91.5 -26h-155z" />
    <glyph glyph-name="approxequal" unicode="&#x2248;" horiz-adv-x="954" 
d="M625 539q-47 0 -84.5 23t-62.5 56.5t-47 66.5t-48 56t-55 23q-88 0 -88 -141v-80h-66v80q0 58 14.5 99.5t38.5 61.5t48 28.5t51 8.5q50 0 89.5 -23t64.5 -56.5t47.5 -66.5t49.5 -56t58 -23q80 0 80 141v80h65v-80q0 -58 -15 -99.5t-39.5 -61.5t-49 -28.5t-51.5 -8.5z
M625 117q-47 0 -84.5 23t-62.5 56t-47 66.5t-48 56.5t-55 23q-88 0 -88 -141v-80h-66v80q0 58 14.5 99.5t38.5 61.5t48 28.5t51 8.5q50 0 89.5 -23t64.5 -56.5t47.5 -66.5t49.5 -56t58 -23q80 0 80 141v80h65v-80q0 -58 -15 -99.5t-39.5 -61.5t-49 -28.5t-51.5 -8.5z" />
    <glyph glyph-name="notequal" unicode="&#x2260;" horiz-adv-x="962" 
d="M788 637h-223l-94 -258h317v-70h-342l-75 -211h-72l76 211h-201v70h225l95 258h-320v70h344l74 202h72l-74 -202h198v-70z" />
    <glyph glyph-name="lessequal" unicode="&#x2264;" horiz-adv-x="876" 
d="M815 885v-68l-678 -166l678 -166v-67l-754 184v98zM61 186v70h754v-70h-754z" />
    <glyph glyph-name="greaterequal" unicode="&#x2265;" horiz-adv-x="876" 
d="M61 885l754 -185v-98l-754 -184v67l678 166l-678 166v68zM61 186v70h754v-70h-754z" />
    <glyph glyph-name="filledbox" unicode="&#x25a0;" horiz-adv-x="1568" 
d="M102 1362h1364v-1362h-1364v1362z" />
    <glyph glyph-name="triagup" unicode="&#x25b2;" horiz-adv-x="1728" 
d="M864 1362l762 -1362h-1524z" />
    <glyph glyph-name="lozenge" unicode="&#x25ca;" horiz-adv-x="1198" 
d="M662 1362l372 -680l-372 -682h-125l-373 682l373 680h125zM600 55l342 627l-342 627l-344 -627z" />
    <glyph glyph-name="uni25CF" unicode="&#x25cf;" horiz-adv-x="1640" 
d="M823 -37q-197 0 -363 96t-262 262t-96 363q0 146 56.5 278t153 228t230 152.5t281.5 56.5q146 0 278 -56.5t228 -152.5t152.5 -228t56.5 -278q0 -148 -56.5 -281.5t-152.5 -230t-228 -153t-278 -56.5z" />
    <glyph glyph-name="G.ss03" horiz-adv-x="1581" 
d="M766 -35q-159 0 -283 51.5t-205 146t-123 226.5t-42 295q0 329 173 522t498 193q282 0 441 -137.5t188 -403.5h-88q-33 248 -163 357.5t-378 109.5q-287 0 -433 -157t-146 -484q0 -645 575 -645q451 0 543 541h-688v71h676q49 0 75.5 -26.5t26.5 -75.5v-545h-82v420
q-18 -71 -39 -126t-65 -121t-101.5 -109.5t-150 -73t-209.5 -29.5z" />
    <glyph glyph-name="Gbreve.ss03" horiz-adv-x="1581" 
d="M578 1710h51q8 -58 44 -92.5t97 -34.5t97 34.5t44 92.5h52q-2 -79 -49.5 -136.5t-143.5 -57.5t-143 57.5t-49 136.5zM766 -35q-159 0 -283 51.5t-205 146t-123 226.5t-42 295q0 329 173 522t498 193q282 0 441 -137.5t188 -403.5h-88q-33 248 -163 357.5t-378 109.5
q-287 0 -433 -157t-146 -484q0 -645 575 -645q451 0 543 541h-688v71h676q49 0 75.5 -26.5t26.5 -75.5v-545h-82v420q-18 -71 -39 -126t-65 -121t-101.5 -109.5t-150 -73t-209.5 -29.5z" />
    <glyph glyph-name="uni0122.ss03" horiz-adv-x="1581" 
d="M766 -35q-159 0 -283 51.5t-205 146t-123 226.5t-42 295q0 329 173 522t498 193q282 0 441 -137.5t188 -403.5h-88q-33 248 -163 357.5t-378 109.5q-287 0 -433 -157t-146 -484q0 -645 575 -645q451 0 543 541h-688v71h676q49 0 75.5 -26.5t26.5 -75.5v-545h-82v420
q-18 -71 -39 -126t-65 -121t-101.5 -109.5t-150 -73t-209.5 -29.5zM694 -244v125h152v-235q0 -86 -28 -115t-113 -29h-11v82h80v172h-80z" />
    <glyph glyph-name="Gdotaccent.ss03" horiz-adv-x="1581" 
d="M711 1526v139h118v-139h-118zM766 -35q-159 0 -283 51.5t-205 146t-123 226.5t-42 295q0 329 173 522t498 193q282 0 441 -137.5t188 -403.5h-88q-33 248 -163 357.5t-378 109.5q-287 0 -433 -157t-146 -484q0 -645 575 -645q451 0 543 541h-688v71h676q49 0 75.5 -26.5
t26.5 -75.5v-545h-82v420q-18 -71 -39 -126t-65 -121t-101.5 -109.5t-150 -73t-209.5 -29.5z" />
    <glyph glyph-name="Q.ss03" horiz-adv-x="1536" 
d="M1423 684q0 -217 -70.5 -377t-211.5 -248l149 -213l-69 -47l-156 221q-125 -55 -297 -55q-164 0 -289.5 51.5t-205 146.5t-120 226t-40.5 295q0 161 40.5 291.5t120 225.5t205.5 146.5t289 51.5t289 -52t205.5 -147t120 -225t40.5 -291zM768 39q147 0 254 43l-260 373
l69 47l267 -381q233 143 233 563q0 323 -140 482t-423 159t-423 -159t-140 -482q0 -325 140 -485t423 -160z" />
    <glyph glyph-name="R.ss03" horiz-adv-x="1331" 
d="M883 74h276v-74h-256q-94 0 -125 78l-229 573h-309v-651h-86v1362h598q198 0 291.5 -89t93.5 -251q0 -179 -100 -275t-289 -96h-103zM240 1288v-565h481q164 0 243.5 76t79.5 211q0 151 -73 214.5t-230 63.5h-501z" />
    <glyph glyph-name="Racute.ss03" horiz-adv-x="1331" 
d="M895 1649l-444 -160l-19 49l430 191zM883 74h276v-74h-256q-94 0 -125 78l-229 573h-309v-651h-86v1362h598q198 0 291.5 -89t93.5 -251q0 -179 -100 -275t-289 -96h-103zM240 1288v-565h481q164 0 243.5 76t79.5 211q0 151 -73 214.5t-230 63.5h-501z" />
    <glyph glyph-name="Rcaron.ss03" horiz-adv-x="1331" 
d="M692 1499h-53l-240 193l50 41l217 -160l217 160l49 -41zM883 74h276v-74h-256q-94 0 -125 78l-229 573h-309v-651h-86v1362h598q198 0 291.5 -89t93.5 -251q0 -179 -100 -275t-289 -96h-103zM240 1288v-565h481q164 0 243.5 76t79.5 211q0 151 -73 214.5t-230 63.5h-501z
" />
    <glyph glyph-name="uni0156.ss03" horiz-adv-x="1331" 
d="M883 74h276v-74h-256q-94 0 -125 78l-229 573h-309v-651h-86v1362h598q198 0 291.5 -89t93.5 -251q0 -179 -100 -275t-289 -96h-103zM240 1288v-565h481q164 0 243.5 76t79.5 211q0 151 -73 214.5t-230 63.5h-501zM590 -244v125h151v-235q0 -86 -28 -115t-113 -29h-10v82
h80v172h-80z" />
    <glyph glyph-name="i.loclTRK" horiz-adv-x="409" 
d="M145 1223v139h119v-139h-119zM164 0v1024h82v-1024h-82z" />
    <glyph glyph-name="a.ss01" horiz-adv-x="1218" 
d="M973 1024h82v-1024h-82v229q-53 -128 -157.5 -196t-252.5 -68q-223 0 -336.5 143t-113.5 404q0 259 113.5 401t336.5 142q148 0 252.5 -67.5t157.5 -194.5v231zM580 37q86 0 156 27t124 82.5t83.5 148.5t29.5 217q0 242 -107 356.5t-286 114.5q-187 0 -284 -117t-97 -354
t97.5 -356t283.5 -119z" />
    <glyph glyph-name="aacute.ss01" horiz-adv-x="1218" 
d="M840 1327l-445 -160l-18 50l430 190zM973 1024h82v-1024h-82v229q-53 -128 -157.5 -196t-252.5 -68q-223 0 -336.5 143t-113.5 404q0 259 113.5 401t336.5 142q148 0 252.5 -67.5t157.5 -194.5v231zM580 37q86 0 156 27t124 82.5t83.5 148.5t29.5 217q0 242 -107 356.5
t-286 114.5q-187 0 -284 -117t-97 -354t97.5 -356t283.5 -119z" />
    <glyph glyph-name="abreve.ss01" horiz-adv-x="1218" 
d="M610 1167q-96 0 -143 58t-49 137h51q8 -58 44 -92.5t97 -34.5t97.5 34.5t44.5 92.5h51q-2 -79 -49.5 -137t-143.5 -58zM973 1024h82v-1024h-82v229q-53 -128 -157.5 -196t-252.5 -68q-223 0 -336.5 143t-113.5 404q0 259 113.5 401t336.5 142q148 0 252.5 -67.5
t157.5 -194.5v231zM580 37q86 0 156 27t124 82.5t83.5 148.5t29.5 217q0 242 -107 356.5t-286 114.5q-187 0 -284 -117t-97 -354t97.5 -356t283.5 -119z" />
    <glyph glyph-name="acircumflex.ss01" horiz-adv-x="1218" 
d="M610 1288l-217 -160l-49 41l240 193h53l240 -193l-50 -41zM973 1024h82v-1024h-82v229q-53 -128 -157.5 -196t-252.5 -68q-223 0 -336.5 143t-113.5 404q0 259 113.5 401t336.5 142q148 0 252.5 -67.5t157.5 -194.5v231zM580 37q86 0 156 27t124 82.5t83.5 148.5
t29.5 217q0 242 -107 356.5t-286 114.5q-187 0 -284 -117t-97 -354t97.5 -356t283.5 -119z" />
    <glyph glyph-name="adieresis.ss01" horiz-adv-x="1218" 
d="M528 1362v-139h-118v139h118zM809 1362v-139h-119v139h119zM973 1024h82v-1024h-82v229q-53 -128 -157.5 -196t-252.5 -68q-223 0 -336.5 143t-113.5 404q0 259 113.5 401t336.5 142q148 0 252.5 -67.5t157.5 -194.5v231zM580 37q86 0 156 27t124 82.5t83.5 148.5
t29.5 217q0 242 -107 356.5t-286 114.5q-187 0 -284 -117t-97 -354t97.5 -356t283.5 -119z" />
    <glyph glyph-name="agrave.ss01" horiz-adv-x="1218" 
d="M856 1217l-18 -50l-445 160l33 80zM973 1024h82v-1024h-82v229q-53 -128 -157.5 -196t-252.5 -68q-223 0 -336.5 143t-113.5 404q0 259 113.5 401t336.5 142q148 0 252.5 -67.5t157.5 -194.5v231zM580 37q86 0 156 27t124 82.5t83.5 148.5t29.5 217q0 242 -107 356.5
t-286 114.5q-187 0 -284 -117t-97 -354t97.5 -356t283.5 -119z" />
    <glyph glyph-name="amacron.ss01" horiz-adv-x="1218" 
d="M948 1362v-70h-676v70h676zM973 1024h82v-1024h-82v229q-53 -128 -157.5 -196t-252.5 -68q-223 0 -336.5 143t-113.5 404q0 259 113.5 401t336.5 142q148 0 252.5 -67.5t157.5 -194.5v231zM580 37q86 0 156 27t124 82.5t83.5 148.5t29.5 217q0 242 -107 356.5t-286 114.5
q-187 0 -284 -117t-97 -354t97.5 -356t283.5 -119z" />
    <glyph glyph-name="aogonek.ss01" horiz-adv-x="1218" 
d="M1112 -250q45 0 88 14v-69q-46 -14 -102 -14q-96 0 -151.5 48t-55.5 140q0 105 82 180v180q-53 -128 -157.5 -196t-252.5 -68q-223 0 -336.5 143t-113.5 404q0 259 113.5 401t336.5 142q148 0 252.5 -67.5t157.5 -194.5v231h82v-1024h-56q-41 -51 -41 -119
q0 -64 41.5 -97.5t112.5 -33.5zM580 37q86 0 156 27t124 82.5t83.5 148.5t29.5 217q0 242 -107 356.5t-286 114.5q-187 0 -284 -117t-97 -354t97.5 -356t283.5 -119z" />
    <glyph glyph-name="aring.ss01" horiz-adv-x="1218" 
d="M610 1143q-64 0 -101.5 39.5t-37.5 97.5q0 56 37.5 95.5t101.5 39.5t102 -39.5t38 -95.5q0 -58 -38 -97.5t-102 -39.5zM610 1362q-33 0 -56.5 -22.5t-23.5 -59.5t23.5 -60.5t56.5 -23.5t56.5 23.5t23.5 60.5t-23.5 59.5t-56.5 22.5zM973 1024h82v-1024h-82v229
q-53 -128 -157.5 -196t-252.5 -68q-223 0 -336.5 143t-113.5 404q0 259 113.5 401t336.5 142q148 0 252.5 -67.5t157.5 -194.5v231zM580 37q86 0 156 27t124 82.5t83.5 148.5t29.5 217q0 242 -107 356.5t-286 114.5q-187 0 -284 -117t-97 -354t97.5 -356t283.5 -119z" />
    <glyph glyph-name="atilde.ss01" horiz-adv-x="1218" 
d="M434 1249v-39h-65v39q0 59 31.5 88t82.5 29q50 0 97 -25.5t85 -51t66 -25.5q31 0 43 12.5t12 46.5v39h66v-39q0 -58 -32 -87.5t-83 -29.5q-44 0 -92 26t-89 51.5t-67 25.5q-31 0 -43 -13t-12 -47zM973 1024h82v-1024h-82v229q-53 -128 -157.5 -196t-252.5 -68
q-223 0 -336.5 143t-113.5 404q0 259 113.5 401t336.5 142q148 0 252.5 -67.5t157.5 -194.5v231zM580 37q86 0 156 27t124 82.5t83.5 148.5t29.5 217q0 242 -107 356.5t-286 114.5q-187 0 -284 -117t-97 -354t97.5 -356t283.5 -119z" />
    <glyph glyph-name="g.ss02" horiz-adv-x="1140" 
d="M797 86q144 0 213 -64.5t69 -179.5q0 -276 -481 -276q-237 0 -346 72.5t-109 201.5q0 77 42 127t102 74q-48 11 -81.5 50t-33.5 97q0 66 41.5 109t124.5 43h14q-100 39 -152.5 124t-52.5 202q0 95 34 167.5t94.5 116t137.5 65t169 21.5q154 0 242.5 -53.5t123.5 -138.5
v180h76v-336q0 -92 -21 -160.5t-69 -122.5t-134 -82t-208 -28h-230q-118 0 -118 -105q0 -46 30 -75t82 -29h441zM229 662q0 -162 88.5 -232t270.5 -70q186 0 270 70t84 236q0 147 -92.5 227t-261.5 80q-177 0 -268 -72.5t-91 -238.5zM596 -369q218 0 310.5 54t92.5 155
q0 86 -56.5 130t-151.5 44h-406q-63 0 -117.5 -44.5t-54.5 -129.5q0 -103 90 -156t293 -53z" />
    <glyph glyph-name="gbreve.ss02" horiz-adv-x="1140" 
d="M571 1167q-96 0 -143 58t-49 137h51q8 -58 44 -92.5t97 -34.5t97.5 34.5t44.5 92.5h51q-2 -79 -49.5 -137t-143.5 -58zM797 86q144 0 213 -64.5t69 -179.5q0 -276 -481 -276q-237 0 -346 72.5t-109 201.5q0 77 42 127t102 74q-48 11 -81.5 50t-33.5 97q0 66 41.5 109
t124.5 43h14q-100 39 -152.5 124t-52.5 202q0 95 34 167.5t94.5 116t137.5 65t169 21.5q154 0 242.5 -53.5t123.5 -138.5v180h76v-336q0 -92 -21 -160.5t-69 -122.5t-134 -82t-208 -28h-230q-118 0 -118 -105q0 -46 30 -75t82 -29h441zM229 662q0 -162 88.5 -232t270.5 -70
q186 0 270 70t84 236q0 147 -92.5 227t-261.5 80q-177 0 -268 -72.5t-91 -238.5zM596 -369q218 0 310.5 54t92.5 155q0 86 -56.5 130t-151.5 44h-406q-63 0 -117.5 -44.5t-54.5 -129.5q0 -103 90 -156t293 -53z" />
    <glyph glyph-name="uni0123.ss02" horiz-adv-x="1140" 
d="M647 1305v-125h-151v235q0 86 28 115t113 29h10v-82h-80v-172h80zM797 86q144 0 213 -64.5t69 -179.5q0 -276 -481 -276q-237 0 -346 72.5t-109 201.5q0 77 42 127t102 74q-48 11 -81.5 50t-33.5 97q0 66 41.5 109t124.5 43h14q-100 39 -152.5 124t-52.5 202
q0 95 34 167.5t94.5 116t137.5 65t169 21.5q154 0 242.5 -53.5t123.5 -138.5v180h76v-336q0 -92 -21 -160.5t-69 -122.5t-134 -82t-208 -28h-230q-118 0 -118 -105q0 -46 30 -75t82 -29h441zM229 662q0 -162 88.5 -232t270.5 -70q186 0 270 70t84 236q0 147 -92.5 227
t-261.5 80q-177 0 -268 -72.5t-91 -238.5zM596 -369q218 0 310.5 54t92.5 155q0 86 -56.5 130t-151.5 44h-406q-63 0 -117.5 -44.5t-54.5 -129.5q0 -103 90 -156t293 -53z" />
    <glyph glyph-name="gdotaccent.ss02" horiz-adv-x="1140" 
d="M631 1362v-139h-119v139h119zM797 86q144 0 213 -64.5t69 -179.5q0 -276 -481 -276q-237 0 -346 72.5t-109 201.5q0 77 42 127t102 74q-48 11 -81.5 50t-33.5 97q0 66 41.5 109t124.5 43h14q-100 39 -152.5 124t-52.5 202q0 95 34 167.5t94.5 116t137.5 65t169 21.5
q154 0 242.5 -53.5t123.5 -138.5v180h76v-336q0 -92 -21 -160.5t-69 -122.5t-134 -82t-208 -28h-230q-118 0 -118 -105q0 -46 30 -75t82 -29h441zM229 662q0 -162 88.5 -232t270.5 -70q186 0 270 70t84 236q0 147 -92.5 227t-261.5 80q-177 0 -268 -72.5t-91 -238.5z
M596 -369q218 0 310.5 54t92.5 155q0 86 -56.5 130t-151.5 44h-406q-63 0 -117.5 -44.5t-54.5 -129.5q0 -103 90 -156t293 -53z" />
    <glyph glyph-name="f_f_j" horiz-adv-x="1581" 
d="M926 1434h547v-70h-590v-340h327v-70h-325v-954h-82v954h-496v-954h-82v954h-164v60l164 10v295q0 61 27.5 88t95.5 27h305v-70h-348v-340h498v295q0 61 27.5 88t95.5 27zM1386 -340v1364h82v-1319q0 -61 -27 -88t-95 -27h-150v70h190z" />
    <glyph glyph-name="f_f_t" horiz-adv-x="1921" 
d="M1849 954h-358v-884h358v-70h-317q-68 0 -95.5 27t-27.5 88v839h-524v-954h-82v954h-496v-954h-82v954h-164v60l164 10v295q0 61 27.5 88t95.5 27h305v-70h-348v-340h498v295q0 61 27.5 88t95.5 27h291v-70h-334v-340h534l15 217h59v-217h358v-70z" />
    <glyph glyph-name="f_j" horiz-adv-x="1003" 
d="M225 0v954h-164v60l164 10v295q0 61 27.5 88t95.5 27h547v-70h-590v-340h328v-70h-326v-954h-82zM618 -410v70h191v1364h82v-1319q0 -61 -27.5 -88t-95.5 -27h-150z" />
    <glyph glyph-name="f_t" horiz-adv-x="1343" 
d="M1272 954h-359v-884h359v-70h-318q-68 0 -95.5 27t-27.5 88v839h-524v-954h-82v954h-164v60l164 10v295q0 61 27.5 88t95.5 27h291v-70h-334v-340h535l14 217h59v-217h359v-70z" />
    <glyph glyph-name="r_t" horiz-adv-x="1409" 
d="M1337 954h-399v-884h399v-70h-358q-68 0 -95.5 27t-27.5 88v909l23 217h59v-217h399v-70zM246 690q88 342 403 342h49v-86l-28 2q-105 8 -183 -23.5t-123 -86.5t-72.5 -139t-36.5 -166t-9 -183v-350h-82v1024h82v-334z" />
    <glyph glyph-name="r_t_t" horiz-adv-x="2007" 
d="M1935 954h-358v-884h358v-70h-317q-68 0 -95.5 28t-27.5 89v837h-557v-884h358v-70h-317q-68 0 -95.5 27t-27.5 88v909l23 217h59v-217h563l17 217h59v-217h358v-70zM246 690q88 342 403 342h49v-86l-28 2q-105 8 -183 -23.5t-123 -86.5t-72.5 -139t-36.5 -166t-9 -183
v-350h-82v1024h82v-334z" />
    <glyph glyph-name="t_t" horiz-adv-x="1400" 
d="M1329 954h-358v-884h358v-70h-317q-68 0 -95.5 28t-27.5 89v837h-557v-884h358v-70h-317q-68 0 -95.5 27t-27.5 88v839h-199v60l205 10l16 217h60v-217h563l16 217h60v-217h358v-70z" />
    <glyph glyph-name="asterisk.case" horiz-adv-x="1546" 
d="M1280 719h174v-74h-174l-461 19l338 -314l123 -123l-51 -53l-123 123l-315 344l18 -467v-174h-74v174l19 467l-314 -344l-123 -123l-53 51l123 123l344 316l-465 -19h-174v72l174 2l465 -19l-342 314l-123 123l49 51l125 -121l314 -338l-19 459v174h74v-174l-18 -465
l313 342l123 123l53 -51l-123 -123l-344 -314z" />
    <glyph glyph-name="percent.alt" horiz-adv-x="1587" 
d="M391 823q-143 0 -216 81t-73 208q0 125 73.5 206t215.5 81t215.5 -81t73.5 -206q0 -127 -73 -208t-216 -81zM184 0v25l1096 1337h82v-25l-1090 -1337h-88zM391 897q97 0 147 51.5t50 163.5q0 113 -50 164t-147 51q-96 0 -146 -51t-50 -164q0 -215 196 -215zM1196 -12
q-143 0 -216 80.5t-73 207.5q0 125 73.5 206t215.5 81t215.5 -81t73.5 -206q0 -127 -73 -207.5t-216 -80.5zM1196 61q97 0 147 51.5t50 163.5q0 114 -50 165t-147 51q-197 0 -197 -216q0 -215 197 -215z" />
    <glyph glyph-name="uni2197.case" horiz-adv-x="1234" 
d="M231 1362h902v-901h-82l4 762l-891 -891l-62 61l891 891l-762 -4v82z" />
    <glyph glyph-name="uni2196.case" horiz-adv-x="1234" 
d="M1133 393l-62 -61l-891 891l4 -762h-82v901h902v-82l-762 4z" />
    <glyph glyph-name="uni0308.case" 
d="M-502 1526v139h119v-139h-119zM-221 1526v139h119v-139h-119z" />
    <glyph glyph-name="uni0307.case" 
d="M-248 1526v139h119v-139h-119z" />
    <glyph glyph-name="gravecomb.case" 
d="M-524 1649l32 80l431 -191l-19 -49z" />
    <glyph glyph-name="acutecomb.case" 
d="M-61 1649l-445 -160l-18 49l430 191z" />
    <glyph glyph-name="uni030B.case" 
d="M-510 1706l-305 -231l-33 38l281 256zM-174 1706l-305 -231l-33 38l281 256z" />
    <glyph glyph-name="uni0302.case" 
d="M-594 1536l240 193h53l240 -193l-50 -41l-217 160l-217 -160z" />
    <glyph glyph-name="uni030C.case" 
d="M-707 1692l50 41l217 -160l217 160l49 -41l-240 -193h-53z" />
    <glyph glyph-name="uni0306.case" 
d="M-559 1710h51q8 -58 44 -92.5t97 -34.5t97.5 34.5t44.5 92.5h51q-2 -79 -49.5 -136.5t-143.5 -57.5t-143 57.5t-49 136.5z" />
    <glyph glyph-name="uni030A.case" 
d="M-313 1473q-64 0 -102 39.5t-38 97.5q0 56 38 95.5t102 39.5t101.5 -39.5t37.5 -95.5q0 -58 -37.5 -97.5t-101.5 -39.5zM-393 1610q0 -37 23.5 -60.5t56.5 -23.5t56.5 23.5t23.5 60.5t-23.5 59.5t-56.5 22.5t-56.5 -22.5t-23.5 -59.5z" />
    <glyph glyph-name="tildecomb.case" 
d="M-395 1542q-44 0 -92 26t-89 51.5t-67 25.5q-31 0 -43 -13t-12 -47v-39h-66v39q0 58 32 87.5t83 29.5q39 0 78 -16t64 -35.5t54 -35.5t52 -16q31 0 43 13t12 47v39h65v-39q0 -59 -31.5 -88t-82.5 -29z" />
    <glyph glyph-name="uni0304.case" 
d="M-850 1653h676v-70h-676v70z" />
    <glyph glyph-name="uni0312.case" 
d="M-174 1550v-125h-152v236q0 85 28 114t114 29h10v-82h-80v-172h80z" />
    </font>
</defs>
</svg>
