<?xml version="1.0" standalone="no"?>
<!DOCTYPE svg PUBLIC "-//W3C//DTD SVG 1.1//EN" "http://www.w3.org/Graphics/SVG/1.1/DTD/svg11.dtd" >
<svg xmlns="http://www.w3.org/2000/svg" xmlns:xlink="http://www.w3.org/1999/xlink" version="1.1">
<metadata>
Created by FontForge 20170731 at Sun Jun 12 09:27:54 2022
 By Aleksey,,,
Copyright (c) 2019 by Nick Losacco. All rights reserved.
</metadata>
<defs>
<font id="Telegraf-Regular" horiz-adv-x="0" >
  <font-face 
    font-family="Telegraf"
    font-weight="400"
    font-stretch="normal"
    units-per-em="2048"
    panose-1="0 0 5 0 0 0 0 0 0 0"
    ascent="1638"
    descent="-410"
    x-height="1024"
    cap-height="1362"
    bbox="-887 -569 2626 2058"
    underline-thickness="61"
    underline-position="-224"
    unicode-range="U+0020-25CF"
  />
<missing-glyph horiz-adv-x="921" 
d="M756 1434v-1844h-584v1844h584zM614 1311h-305v-62h121v-67h-123v-62h307v62h-122v67h122v62zM492 1073h-185v-192h307v63h-122v129zM430 1010v-66h-61v66h61zM614 831h-307v-61h123v-68h-123v-61h185v129h122v61zM614 721h-61v-123h-246v-61h307v184zM614 496h-184v-103
h62v41h61v-86h-184v148h-62v-209h307v209zM614 176h-307v-209h307v209zM553 117v-88h-184v88h184zM614 -74h-307v-61h129l-129 -86v-62h307v62h-188l129 86h59v61z" />
    <glyph glyph-name="f_f" unicode="ff" horiz-adv-x="1374" 
d="M1374 1309h-366v-285h311v-129h-301v-895h-164v895h-455v-895h-163v895h-173v92l173 43v197q0 107 58.5 157t201.5 50h223v-125h-332v-285h467v203q0 106 59.5 156.5t202.5 50.5h258v-125z" />
    <glyph glyph-name="f_f_i" unicode="ffi" horiz-adv-x="1763" 
d="M1116 1434h520v-125h-628v-285h303v-129h-293v-895h-164v895h-455v-895h-163v895h-173v92l173 43v197q0 107 58.5 157t201.5 50h223v-125h-332v-285h467v203q0 106 59.5 156.5t202.5 50.5zM1473 0v1024h163v-1024h-163z" />
    <glyph glyph-name="f_f_l" unicode="ffl" horiz-adv-x="1818" 
d="M1671 1434v-1434h-164v1309h-499v-285h301v-129h-291v-895h-164v895h-455v-895h-163v895h-173v92l173 43v197q0 107 58.5 157t201.5 50h223v-125h-332v-285h467v203q0 106 59.5 156.5t202.5 50.5h555z" />
    <glyph glyph-name="f_i" unicode="fi" horiz-adv-x="1163" 
d="M236 0v895h-173v92l173 39v201q0 107 58.5 157t201.5 50h520v-125h-629v-285h305v-129h-293v-895h-163zM852 0v1024h164v-1024h-164z" />
    <glyph glyph-name="f_l" unicode="fl" horiz-adv-x="1198" 
d="M1051 1434v-1434h-164v1309h-500v-285h301v-129h-289v-895h-163v895h-173v92l173 43v197q0 107 58.5 157t201.5 50h555z" />
    <glyph glyph-name=".notdef" horiz-adv-x="921" 
d="M756 1434v-1844h-584v1844h584zM614 1311h-305v-62h121v-67h-123v-62h307v62h-122v67h122v62zM492 1073h-185v-192h307v63h-122v129zM430 1010v-66h-61v66h61zM614 831h-307v-61h123v-68h-123v-61h185v129h122v61zM614 721h-61v-123h-246v-61h307v184zM614 496h-184v-103
h62v41h61v-86h-184v148h-62v-209h307v209zM614 176h-307v-209h307v209zM553 117v-88h-184v88h184zM614 -74h-307v-61h129l-129 -86v-62h307v62h-188l129 86h59v61z" />
    <glyph glyph-name=".null" 
 />
    <glyph glyph-name="nonmarkingreturn" horiz-adv-x="682" 
 />
    <glyph glyph-name="space" unicode=" " horiz-adv-x="460" 
 />
    <glyph glyph-name="exclam" unicode="!" horiz-adv-x="434" 
d="M162 399l-27 963h164l-27 -963h-110zM111 0v180h213v-180h-213z" />
    <glyph glyph-name="quotedbl" unicode="&#x22;" horiz-adv-x="536" 
d="M43 1362h174l-20 -426h-134zM317 1362h177l-21 -426h-135z" />
    <glyph glyph-name="numbersign" unicode="#" horiz-adv-x="1759" 
d="M1657 899h-363l-133 -391h350v-125h-393l-131 -383h-145l131 383h-430l-131 -383h-148l131 383h-293v125h336l133 391h-321v125h364l115 338h148l-115 -338h430l115 338h145l-115 -338h320v-125zM1016 508l133 391h-430l-133 -391h430z" />
    <glyph glyph-name="dollar" unicode="$" horiz-adv-x="1056" 
d="M969 444q0 -281 -361 -305v-211h-164v213q-186 21 -274.5 118.5t-91.5 252.5h151q10 -116 81 -183t231 -67q143 0 204.5 43t61.5 131q0 78 -44.5 119t-141.5 55l-238 35q-135 19 -207 89t-72 188q0 125 90.5 205.5t249.5 97.5v209h164v-209q158 -20 245 -106t95 -218
h-162q-8 89 -71.5 146t-194.5 57q-126 0 -191 -46t-65 -124q0 -129 166 -152l232 -32q162 -24 234.5 -99.5t72.5 -206.5z" />
    <glyph glyph-name="percent" unicode="%" horiz-adv-x="1660" 
d="M102 0v25l1268 1214h-625v-422h-567v545h1280q101 0 101 -82q0 -52 -60 -109l-1227 -1171h-170zM311 940h305v299h-305v-299zM973 0v543h567v-543h-567zM1106 123h303v301h-303v-301z" />
    <glyph glyph-name="ampersand" unicode="&#x26;" horiz-adv-x="1556" 
d="M1477 608h-238q-13 -212 -82 -348l248 -215l-88 -96l-232 201q-152 -185 -469 -185q-139 0 -247 40.5t-174 126t-66 204.5q0 94 37 167.5t100.5 125t163.5 98.5q-156 166 -156 326q0 159 109 251.5t303 92.5q183 0 287 -86t104 -224q0 -121 -75 -201t-222 -145l-118 -51
q5 -5 16 -14t16 -14l357 -310q45 104 51 248q3 73 40.5 108t98.5 35h236v-135zM686 1276q-120 0 -183 -56t-63 -165q0 -80 29.5 -143t89.5 -128l152 68q102 45 152 94t50 129q0 201 -227 201zM629 92q228 0 354 148l-389 335q-14 11 -64 56q-235 -103 -235 -285
q0 -118 86 -186t248 -68z" />
    <glyph glyph-name="quotesingle" unicode="'" horiz-adv-x="260" 
d="M43 1362h174l-20 -426h-134z" />
    <glyph glyph-name="parenleft" unicode="(" horiz-adv-x="677" 
d="M82 580q0 152 28.5 289t74 240.5t110 193.5t129 152t137.5 114l55 -68q-360 -327 -360 -921q0 -595 360 -922l-55 -68q-73 52 -137.5 114t-129 152.5t-110 193.5t-74 240.5t-28.5 289.5z" />
    <glyph glyph-name="parenright" unicode=")" horiz-adv-x="677" 
d="M596 580q0 -152 -28.5 -289.5t-74 -240.5t-110 -193.5t-129 -152.5t-137.5 -114l-56 68q361 328 361 922q0 593 -361 921l56 68q73 -52 137.5 -114t129 -152t110 -193.5t74 -240.5t28.5 -289z" />
    <glyph glyph-name="asterisk" unicode="*" horiz-adv-x="755" 
d="M59 1145l62 102l239 -186l-41 301h117l-41 -301l240 186l59 -102l-280 -115l282 -115l-61 -104l-240 188l41 -301h-117l41 301l-239 -188l-60 104l281 115z" />
    <glyph glyph-name="plus" unicode="+" horiz-adv-x="1105" 
d="M963 573v-124h-342v-347h-136v347h-342v124h342v351h136v-351h342z" />
    <glyph glyph-name="comma" unicode="," horiz-adv-x="296" 
d="M43 8v172h211v-299q0 -84 -39.5 -118.5t-128.5 -34.5h-43v106h104v174h-104z" />
    <glyph glyph-name="hyphen" unicode="-" horiz-adv-x="956" 
d="M68 573h819v-124h-819v124z" />
    <glyph glyph-name="period" unicode="." horiz-adv-x="296" 
d="M43 0v180h213v-180h-213z" />
    <glyph glyph-name="slash" unicode="/" horiz-adv-x="655" 
d="M25 0l464 1362h146l-465 -1362h-145z" />
    <glyph glyph-name="zero" unicode="0" horiz-adv-x="1415" 
d="M709 -35q-156 0 -275 53.5t-192 151t-109.5 226t-36.5 286.5q0 155 36.5 283.5t109.5 226.5t192 152.5t275 54.5q155 0 274 -55t192 -153t109.5 -226.5t36.5 -282.5q0 -157 -36.5 -285.5t-109.5 -226t-192 -151.5t-274 -54zM274 682q0 -290 105.5 -433t329.5 -143
q222 0 328 143t106 433t-106 432.5t-328 142.5q-224 0 -329.5 -142.5t-105.5 -432.5z" />
    <glyph glyph-name="one" unicode="1" horiz-adv-x="960" 
d="M127 0v139h317v1084h-315v139h291q102 0 147 -42.5t45 -127.5v-1053h291v-139h-776z" />
    <glyph glyph-name="two" unicode="2" horiz-adv-x="1298" 
d="M135 0v139l676 568q100 85 138 151.5t38 155.5q0 110 -72.5 176.5t-218.5 66.5q-198 0 -291 -110.5t-96 -325.5h-176q2 97 21 180t61.5 157.5t105.5 127t158 83t215 30.5q124 0 218 -31.5t147.5 -86t79.5 -121t26 -144.5q0 -129 -74.5 -238t-250.5 -254l-461 -385h813
v-139h-1057z" />
    <glyph glyph-name="three" unicode="3" horiz-adv-x="1286" 
d="M92 442h178q5 -145 101.5 -240.5t267.5 -95.5q180 0 273.5 83.5t93.5 244.5q0 134 -75 212.5t-216 78.5q-75 0 -132.5 -19t-119.5 -59l-82 109l537 467h-775v139h975v-139l-469 -422q70 18 139 18q77 0 147 -24.5t126 -71t89.5 -122.5t33.5 -171q0 -71 -17.5 -136
t-59 -125.5t-103.5 -105t-156.5 -71.5t-212.5 -27q-258 0 -398 133t-145 344z" />
    <glyph glyph-name="four" unicode="4" horiz-adv-x="1277" 
d="M987 483h230v-137h-230v-346h-170v346h-745v137l649 879h266v-879zM244 483h573v772z" />
    <glyph glyph-name="five" unicode="5" horiz-adv-x="1290" 
d="M717 907q219 0 347 -122.5t128 -338.5q0 -104 -30.5 -189t-94 -151.5t-171 -103.5t-251.5 -37q-262 0 -397 113t-144 307h175q21 -279 366 -279q186 0 277.5 89.5t91.5 248.5q0 164 -86.5 252t-243.5 88q-226 0 -369 -178h-157l43 756h934v-139h-785l-31 -473
q143 157 398 157z" />
    <glyph glyph-name="six" unicode="6" horiz-adv-x="1269" 
d="M690 856q203 0 336 -112.5t133 -317.5q0 -98 -34.5 -182t-98.5 -146t-162 -97.5t-219 -35.5q-547 0 -547 697q0 351 149 544t431 193q225 0 343.5 -102.5t141.5 -284.5h-168q-41 245 -321 245q-103 0 -179.5 -34t-130.5 -108t-81 -195t-27 -291v-11q59 110 171.5 174
t262.5 64zM641 106q173 0 258.5 84.5t85.5 225.5q0 145 -85.5 230t-244.5 85q-162 0 -261 -83t-99 -230q0 -139 92.5 -225.5t253.5 -86.5z" />
    <glyph glyph-name="seven" unicode="7" horiz-adv-x="1128" 
d="M47 1223v139h1022v-117q-103 -100 -180.5 -191t-151 -207t-120.5 -238t-76.5 -277.5t-32.5 -331.5h-170q6 370 148.5 669.5t402.5 553.5h-842z" />
    <glyph glyph-name="eight" unicode="8" horiz-adv-x="1269" 
d="M635 -33q-138 0 -243 32.5t-166.5 88.5t-91.5 125t-30 149q0 128 71.5 218t203.5 133q-113 42 -176.5 124.5t-63.5 192.5q0 74 29.5 139t88 116.5t156 81.5t222.5 30t222.5 -30t155.5 -81.5t87.5 -116.5t29.5 -139q0 -107 -64.5 -190t-174.5 -125q132 -45 203 -135
t71 -218q0 -63 -18 -119.5t-59 -107.5t-101.5 -88t-150.5 -58.5t-201 -21.5zM635 772q171 0 252.5 69.5t81.5 178.5q0 110 -83 175t-251 65t-251 -65t-83 -175q0 -109 81.5 -178.5t252.5 -69.5zM635 104q182 0 271 72t89 195q0 126 -90.5 200t-269.5 74t-270 -74t-91 -200
q0 -123 89.5 -195t271.5 -72z" />
    <glyph glyph-name="nine" unicode="9" horiz-adv-x="1269" 
d="M625 1399q546 0 546 -697q0 -350 -149.5 -543.5t-429.5 -193.5q-226 0 -344.5 102.5t-141.5 284.5h168q38 -246 322 -246q103 0 179.5 34.5t130.5 108.5t81 195t27 291v15q-57 -112 -170 -177t-266 -65q-131 0 -235.5 47t-169 146t-64.5 237q0 202 137 331.5t379 129.5z
M612 633q162 0 262.5 83.5t100.5 229.5q0 139 -92.5 225t-255.5 86q-172 0 -257 -84t-85 -225q0 -145 84 -230t243 -85z" />
    <glyph glyph-name="colon" unicode=":" horiz-adv-x="296" 
d="M43 844v180h213v-180h-213zM43 0v180h213v-180h-213z" />
    <glyph glyph-name="semicolon" unicode=";" horiz-adv-x="296" 
d="M43 844v180h213v-180h-213zM43 8v172h211v-299q0 -84 -39.5 -118.5t-128.5 -34.5h-43v106h104v174h-104z" />
    <glyph glyph-name="less" unicode="&#x3c;" horiz-adv-x="985" 
d="M821 870v-133l-579 -225l579 -225v-133l-684 266v184z" />
    <glyph glyph-name="equal" unicode="=" horiz-adv-x="907" 
d="M133 737h641v-125h-641v125zM133 410h641v-125h-641v125z" />
    <glyph glyph-name="greater" unicode="&#x3e;" horiz-adv-x="958" 
d="M137 870l684 -266v-184l-684 -266v133l580 225l-580 225v133z" />
    <glyph glyph-name="question" unicode="?" horiz-adv-x="1284" 
d="M526 516v139h109q364 0 364 306q0 130 -80.5 213t-232.5 83q-359 0 -379 -360h-174q4 80 22.5 149.5t59.5 135.5t102 113t155.5 75.5t213.5 28.5q125 0 221.5 -34.5t154.5 -94.5t87 -135t29 -162q0 -212 -142.5 -334.5t-388.5 -122.5h-121zM549 0v180h213v-180h-213z" />
    <glyph glyph-name="at" unicode="@" horiz-adv-x="2121" 
d="M1130 -383q-478 0 -745.5 238.5t-267.5 652.5q0 202 63.5 370.5t182.5 290t299.5 189t404.5 67.5q450 0 696 -212t246 -607q0 -143 -36.5 -252t-101.5 -173.5t-146 -96t-177 -31.5h-209l-6 180q-37 -97 -124.5 -149.5t-215.5 -52.5q-107 0 -188.5 36.5t-131 103t-74 155
t-24.5 198.5q0 109 24.5 197.5t74 155t131 103t188.5 36.5q242 0 340 -189v156h164v-797h76q128 0 201 106t73 329q0 318 -197.5 498.5t-582.5 180.5q-197 0 -349.5 -60t-247.5 -168t-143 -250.5t-48 -313.5q0 -355 222 -556.5t627 -201.5h363v-133h-361zM1036 164
q153 0 230 87t77 273t-76.5 272.5t-230.5 86.5q-153 0 -218.5 -85.5t-65.5 -273.5q0 -189 65.5 -274.5t218.5 -85.5z" />
    <glyph glyph-name="A" unicode="A" horiz-adv-x="1431" 
d="M1188 0l-133 348h-676l-133 -348h-170l516 1362h252l516 -1362h-172zM430 485h574l-287 754z" />
    <glyph glyph-name="B" unicode="B" horiz-adv-x="1331" 
d="M944 705q122 -15 200.5 -100.5t78.5 -237.5q0 -172 -105.5 -269.5t-312.5 -97.5h-666v1362h670q106 0 183.5 -26t122 -73t65 -106.5t20.5 -132.5q0 -139 -72 -219t-184 -100zM774 1225h-465v-455h443q142 0 206 57t64 172q0 119 -54.5 172.5t-193.5 53.5zM788 137
q256 0 256 248q0 256 -288 256h-447v-504h479z" />
    <glyph glyph-name="C" unicode="C" horiz-adv-x="1548" 
d="M793 -35q-172 0 -303.5 53.5t-213 150.5t-122.5 226t-41 287q0 156 41.5 285.5t124 226.5t214.5 151t304 54q590 0 643 -545h-172q-22 201 -139 302t-336 101q-502 0 -502 -575q0 -288 122 -432t375 -144q228 0 349 113t135 324h174q-9 -133 -51 -237t-120 -181.5
t-200 -118.5t-282 -41z" />
    <glyph glyph-name="D" unicode="D" horiz-adv-x="1441" 
d="M705 1362q162 0 286 -53t199 -147.5t112 -214.5t37 -263q0 -144 -37 -265.5t-112 -216.5t-199 -148.5t-286 -53.5h-566v1362h566zM674 137q134 0 228.5 36t151 108t82 170.5t25.5 232.5t-25 231.5t-81 168.5t-151 106t-230 35h-365v-1088h365z" />
    <glyph glyph-name="E" unicode="E" horiz-adv-x="1282" 
d="M309 137h844v-137h-1014v1362h1008v-137h-838v-457h776v-135h-776v-496z" />
    <glyph glyph-name="F" unicode="F" horiz-adv-x="1257" 
d="M1145 1225h-836v-467h774v-135h-774v-623h-170v1362h1006v-137z" />
    <glyph glyph-name="G" unicode="G" horiz-adv-x="1599" 
d="M772 -35q-165 0 -292.5 53.5t-207 150t-119.5 226t-40 287.5q0 157 42.5 286.5t125.5 226.5t216 150.5t306 53.5q589 0 649 -525h-176q-26 198 -140.5 290.5t-338.5 92.5q-258 0 -382 -142.5t-124 -432.5q0 -288 123 -432t383 -144q420 0 487 439h-614v127h780v-670h-154
v332q-18 -62 -47 -115t-73.5 -100.5t-101.5 -81t-134 -53t-168 -19.5z" />
    <glyph glyph-name="H" unicode="H" horiz-adv-x="1411" 
d="M1102 1362h168v-1362h-168v635h-793v-635h-170v1362h170v-590h793v590z" />
    <glyph glyph-name="I" unicode="I" horiz-adv-x="1019" 
d="M883 1225h-289v-1088h289v-137h-746v137h289v1088h-289v137h746v-137z" />
    <glyph glyph-name="J" unicode="J" horiz-adv-x="862" 
d="M78 0v137h483v1225h168v-1122q0 -127 -57 -183.5t-201 -56.5h-393z" />
    <glyph glyph-name="K" unicode="K" horiz-adv-x="1366" 
d="M698 784l572 -776v-8h-207l-479 664l-275 -295v-369h-170v1362h170v-774l705 774h223z" />
    <glyph glyph-name="L" unicode="L" horiz-adv-x="1067" 
d="M309 137h713v-137h-883v1362h170v-1225z" />
    <glyph glyph-name="M" unicode="M" horiz-adv-x="1767" 
d="M1628 1362v-1362h-170v1235l-459 -1235h-229l-461 1235v-1235h-170v1362h297l451 -1208l448 1208h293z" />
    <glyph glyph-name="N" unicode="N" horiz-adv-x="1439" 
d="M1130 1362h168v-1362h-284l-619 1069q-48 91 -86 178v-1247h-170v1362h287l618 -1071q35 -61 86 -176v1247z" />
    <glyph glyph-name="O" unicode="O" horiz-adv-x="1583" 
d="M791 -35q-173 0 -304.5 53.5t-212.5 151t-121 226t-40 286.5q0 156 40 284t120.5 226t212.5 152.5t305 54.5t305 -55t212.5 -153t121 -226.5t40.5 -282.5q0 -157 -40.5 -285.5t-121 -226t-212.5 -151.5t-305 -54zM291 682q0 -291 121 -433.5t379 -142.5t379.5 142.5
t121.5 433.5q0 290 -121.5 432.5t-379.5 142.5t-379 -142t-121 -433z" />
    <glyph glyph-name="P" unicode="P" horiz-adv-x="1261" 
d="M764 1362q107 0 187.5 -31t129 -86t72 -125.5t23.5 -154.5t-24 -154.5t-72.5 -126.5t-131.5 -87.5t-192 -31.5h-445v-565h-172v1362h625zM721 702q276 0 276 263q0 127 -63.5 193.5t-206.5 66.5h-416v-523h410z" />
    <glyph glyph-name="Q" unicode="Q" horiz-adv-x="1613" 
d="M113 702q0 155 41 280.5t122.5 219.5t214.5 145.5t308 51.5q174 0 306.5 -51.5t214 -144t122.5 -215t41 -271.5q0 -209 -91 -361t-270 -221h385v-135h-708q-175 0 -308 51.5t-214.5 145.5t-122.5 221t-41 284zM291 702q0 -286 123 -423.5t385 -137.5q261 0 383.5 137.5
t122.5 423.5q0 285 -122 420t-384 135q-263 0 -385.5 -135t-122.5 -420z" />
    <glyph glyph-name="R" unicode="R" horiz-adv-x="1325" 
d="M1149 360v-143q0 -102 27 -217h-166q-25 80 -25 211v125q0 143 -74 208.5t-219 65.5h-383v-610h-170v1362h635q206 0 312 -95t106 -263q0 -133 -73.5 -225.5t-190.5 -119.5q53 -15 89.5 -34.5t68.5 -53t47.5 -86t15.5 -125.5zM754 737q137 0 198.5 64.5t61.5 187.5
q0 119 -62.5 177.5t-195.5 58.5h-447v-488h445z" />
    <glyph glyph-name="S" unicode="S" horiz-adv-x="1347" 
d="M106 467h166q7 -365 428 -365q201 0 284 64t83 190q0 107 -59 164.5t-189 79.5l-321 49q-177 26 -261.5 114t-84.5 243q0 173 132.5 283t385.5 110q258 0 397.5 -119.5t153.5 -323.5h-164q-14 145 -109.5 227.5t-279.5 82.5q-175 0 -259.5 -68.5t-84.5 -187.5
q0 -182 204 -215l340 -52q186 -30 278.5 -117t92.5 -247q0 -410 -539 -410q-129 0 -231 26.5t-169.5 71.5t-111.5 109t-63 136t-19 155z" />
    <glyph glyph-name="T" unicode="T" horiz-adv-x="1284" 
d="M1214 1362v-137h-487v-1227h-168v1227h-491v137h1146z" />
    <glyph glyph-name="U" unicode="U" horiz-adv-x="1378" 
d="M137 487v875h168v-854q0 -115 24 -193t74 -123t119 -64t168 -19t167.5 19t118.5 64t73.5 123t23.5 193v854h170v-875q0 -254 -137 -387t-416 -133q-553 0 -553 520z" />
    <glyph glyph-name="V" unicode="V" horiz-adv-x="1388" 
d="M1137 1362h172l-492 -1362h-246l-493 1362h178l381 -1051q33 -86 59 -180q12 45 58 180z" />
    <glyph glyph-name="W" unicode="W" horiz-adv-x="2045" 
d="M1776 1362h170l-312 -1362h-286l-324 1233l-326 -1233h-286l-312 1362h172l287 -1253l332 1253h266l332 -1253z" />
    <glyph glyph-name="X" unicode="X" horiz-adv-x="1421" 
d="M1331 0h-211l-413 555l-408 -555h-205l510 692l-500 670h207l404 -541l397 541h199l-494 -674z" />
    <glyph glyph-name="Y" unicode="Y" horiz-adv-x="1308" 
d="M1061 1362h190l-512 -885v-477h-170v477l-512 885h195l309 -563q66 -126 94 -174q6 11 41.5 75t53.5 99z" />
    <glyph glyph-name="Z" unicode="Z" horiz-adv-x="1398" 
d="M342 137h934v-137h-1143v137l930 1088h-918v137h1125v-137z" />
    <glyph glyph-name="bracketleft" unicode="[" horiz-adv-x="997" 
d="M905 1386h-579v-1656h579v-140h-747v1936h747v-140z" />
    <glyph glyph-name="backslash" unicode="\" horiz-adv-x="655" 
d="M633 0h-148l-465 1362h148z" />
    <glyph glyph-name="bracketright" unicode="]" horiz-adv-x="999" 
d="M842 1526v-1936h-750v140h580v1656h-580v140h750z" />
    <glyph glyph-name="asciicircum" unicode="^" horiz-adv-x="1032" 
d="M858 784h-135l-207 463l-209 -463h-133l260 578h164z" />
    <glyph glyph-name="underscore" unicode="_" horiz-adv-x="956" 
d="M68 0h819v-125h-819v125z" />
    <glyph glyph-name="grave" unicode="`" horiz-adv-x="1228" 
d="M63 1278l50 125l430 -191l-27 -63z" />
    <glyph glyph-name="a" unicode="a" horiz-adv-x="1122" 
d="M457 -27q-152 0 -245 77.5t-93 219.5q0 128 74.5 204.5t236.5 103.5l260 43q84 14 119 40.5t35 83.5q0 87 -56.5 136t-195.5 49q-270 0 -287 -228h-162q5 166 119.5 261.5t323.5 95.5q203 0 305 -85t102 -229v-491q0 -124 13 -254h-150q-14 154 -14 240q-16 -50 -44 -94
t-73 -85t-114 -64.5t-154 -23.5zM489 102q88 0 157 32t111.5 86.5t64.5 122t22 142.5v88q-60 -43 -185 -69l-170 -35q-107 -22 -155.5 -66.5t-48.5 -126.5q0 -85 55 -129.5t149 -44.5z" />
    <glyph glyph-name="b" unicode="b" horiz-adv-x="1265" 
d="M696 1057q118 0 208.5 -40.5t147 -114t85 -172t28.5 -218.5q0 -119 -28.5 -217.5t-85 -172t-147 -114.5t-208.5 -41q-276 0 -387 230v-197h-164v1434h164v-605q110 228 387 228zM664 100q173 0 254 102t81 310q0 209 -81 310.5t-254 101.5q-169 0 -262 -101t-93 -311
t93 -311t262 -101z" />
    <glyph glyph-name="c" unicode="c" horiz-adv-x="1185" 
d="M98 512q0 242 135 393.5t377 151.5q222 0 343 -111t134 -297h-153q-19 130 -99 202.5t-219 72.5q-352 0 -352 -412q0 -215 89 -313.5t257 -98.5q150 0 234 77.5t100 213.5h156q-5 -90 -38.5 -166t-94 -134t-152 -91t-205.5 -33q-164 0 -281 71.5t-174 193t-57 280.5z" />
    <glyph glyph-name="d" unicode="d" horiz-adv-x="1265" 
d="M956 1434h164v-1434h-164v197q-111 -230 -387 -230q-118 0 -208.5 41t-147 114.5t-85 172t-28.5 217.5q0 120 28.5 218.5t85 172t147 114t208.5 40.5q277 0 387 -228v605zM602 100q169 0 261.5 101t92.5 311t-92.5 311t-261.5 101q-173 0 -254.5 -101.5t-81.5 -310.5
q0 -208 81.5 -310t254.5 -102z" />
    <glyph glyph-name="e" unicode="e" horiz-adv-x="1179" 
d="M612 92q270 0 324 223h149q-6 -50 -24.5 -96.5t-55.5 -93t-89 -81t-132 -56t-178 -21.5q-129 0 -227.5 41.5t-159 116.5t-91 173t-30.5 216q0 156 55 276.5t171.5 193.5t281.5 73q226 0 353.5 -140.5t127.5 -369.5q0 -47 -4 -72h-823q9 -202 99.5 -292.5t252.5 -90.5z
M608 932q-152 0 -239.5 -79.5t-104.5 -254.5h664q-6 172 -89 253t-231 81z" />
    <glyph glyph-name="f" unicode="f" horiz-adv-x="755" 
d="M236 0v895h-173v92l173 43v197q0 107 58.5 157t201.5 50h260v-125h-369v-285h311v-129h-299v-895h-163z" />
    <glyph glyph-name="g" unicode="g" horiz-adv-x="1261" 
d="M952 1024h164v-1026q0 -213 -118 -321.5t-388 -108.5q-226 0 -349.5 94.5t-137.5 271.5h162q21 -237 325 -237q183 0 262.5 70t79.5 233v221q-104 -198 -381 -198q-236 0 -354.5 136.5t-118.5 379.5q0 242 119 378t354 136q271 0 381 -205v176zM610 152q169 0 255.5 92
t86.5 295q0 201 -87 293t-255 92q-177 0 -260.5 -90.5t-83.5 -294.5t83.5 -295.5t260.5 -91.5z" />
    <glyph glyph-name="h" unicode="h" horiz-adv-x="1200" 
d="M707 1057q189 0 276.5 -101t87.5 -303v-653h-164v635q0 156 -62.5 220.5t-182.5 64.5q-171 0 -260 -133t-89 -396v-391h-163v1434h163v-678q49 144 147.5 222.5t246.5 78.5z" />
    <glyph glyph-name="i" unicode="i" horiz-adv-x="464" 
d="M127 1192v170h211v-170h-211zM150 0v1024h163v-1024h-163z" />
    <glyph glyph-name="j" unicode="j" horiz-adv-x="440" 
d="M119 1192v170h211v-170h-211zM-123 -410v134h266v1300h164v-1194q0 -126 -59 -183t-203 -57h-168z" />
    <glyph glyph-name="k" unicode="k" horiz-adv-x="1163" 
d="M911 0l-387 494l-211 -201v-293h-163v1434h163v-959q44 55 99 107l460 442h203v-4l-448 -428l491 -592h-207z" />
    <glyph glyph-name="l" unicode="l" horiz-adv-x="458" 
d="M147 0v1434h164v-1434h-164z" />
    <glyph glyph-name="m" unicode="m" horiz-adv-x="1880" 
d="M1405 1057q346 0 346 -398v-659h-164v641q0 150 -58 214.5t-175 64.5q-166 0 -245 -131.5t-79 -397.5v-391h-160v641q0 150 -59 214.5t-176 64.5q-163 0 -242.5 -132t-79.5 -397v-391h-163v1024h163v-252q96 285 373 285q292 0 336 -289q95 289 383 289z" />
    <glyph glyph-name="n" unicode="n" horiz-adv-x="1200" 
d="M707 1057q189 0 276.5 -101t87.5 -303v-653h-164v635q0 156 -62.5 220.5t-182.5 64.5q-171 0 -260 -133t-89 -396v-391h-163v1024h163v-268q49 144 147.5 222.5t246.5 78.5z" />
    <glyph glyph-name="o" unicode="o" horiz-adv-x="1226" 
d="M614 -33q-127 0 -226.5 42t-162 116t-95 173t-32.5 216q0 92 20 173.5t62 149.5t102.5 117t145 76t186.5 27q126 0 225 -42t161.5 -116t95 -172t32.5 -213q0 -117 -32.5 -215.5t-95 -173t-161.5 -116.5t-225 -42zM264 512q0 -212 87 -312t263 -100t262.5 99.5t86.5 312.5
q0 214 -86.5 313t-262.5 99t-263 -99t-87 -313z" />
    <glyph glyph-name="p" unicode="p" horiz-adv-x="1265" 
d="M696 1057q118 0 208.5 -41t147 -114.5t85 -172t28.5 -217.5q0 -120 -28.5 -218.5t-85 -172t-147 -114t-208.5 -40.5q-277 0 -387 228v-605h-164v1434h164v-197q111 230 387 230zM664 100q173 0 254 101.5t81 310.5q0 208 -81 310t-254 102q-169 0 -262 -101t-93 -311
t93 -311t262 -101z" />
    <glyph glyph-name="q" unicode="q" horiz-adv-x="1265" 
d="M956 1024h164v-1434h-164v605q-110 -228 -387 -228q-118 0 -208.5 40.5t-147 114t-85 172t-28.5 218.5q0 119 28.5 217.5t85 172t147 114.5t208.5 41q276 0 387 -230v197zM602 100q169 0 261.5 101t92.5 311t-92.5 311t-261.5 101q-173 0 -254.5 -102t-81.5 -310
q0 -209 81.5 -310.5t254.5 -101.5z" />
    <glyph glyph-name="r" unicode="r" horiz-adv-x="788" 
d="M688 1038h37v-161h-43q-89 3 -154.5 -21t-106.5 -66.5t-65.5 -109t-33.5 -138.5t-9 -165v-377h-163v1024h163v-270q102 284 375 284z" />
    <glyph glyph-name="s" unicode="s" horiz-adv-x="1056" 
d="M78 342h151q22 -250 326 -250q132 0 192 44.5t60 133.5q0 74 -45 115.5t-141 54.5l-238 35q-135 19 -207 89.5t-72 187.5q0 143 108.5 225t301.5 82q197 0 311 -90t123 -238h-162q-8 88 -76 145.5t-200 57.5q-125 0 -185.5 -45.5t-60.5 -124.5q0 -129 166 -152l217 -30
q173 -26 247.5 -99.5t74.5 -203.5q0 -156 -106 -234t-312 -78q-122 0 -213.5 28t-147 79.5t-83 118t-29.5 149.5z" />
    <glyph glyph-name="t" unicode="t" horiz-adv-x="800" 
d="M483 0q-142 0 -194.5 55.5t-52.5 184.5v655h-195v92l209 51l61 213h88v-227h338v-129h-338v-762h326v-133h-242z" />
    <glyph glyph-name="u" unicode="u" horiz-adv-x="1198" 
d="M885 1024h164v-1024h-164v260q-98 -293 -381 -293q-192 0 -283.5 100.5t-91.5 303.5v653h164v-635q0 -161 65 -224t193 -63q160 0 247 138t87 393v391z" />
    <glyph glyph-name="v" unicode="v" horiz-adv-x="1124" 
d="M913 1024h162l-403 -1024h-217l-404 1024h172l344 -881z" />
    <glyph glyph-name="w" unicode="w" horiz-adv-x="1796" 
d="M1577 1024h160l-312 -1024h-233l-295 829l-293 -829h-233l-314 1024h172l265 -901l323 901h170l324 -901z" />
    <glyph glyph-name="x" unicode="x" horiz-adv-x="1132" 
d="M59 0l408 516l-397 508h196l301 -403l301 403h189l-393 -504l413 -520h-196l-318 418l-317 -418h-187z" />
    <glyph glyph-name="y" unicode="y" horiz-adv-x="1138" 
d="M926 1024h161l-481 -1194q-27 -71 -46.5 -108.5t-52 -71.5t-77.5 -47t-113 -13h-194v134h285l112 276h-57l-406 1024h172l314 -788l35 -99l30 99z" />
    <glyph glyph-name="z" unicode="z" horiz-adv-x="1116" 
d="M315 125h703v-125h-901v125l696 774h-696v125h891v-125z" />
    <glyph glyph-name="braceleft" unicode="{" horiz-adv-x="792" 
d="M82 516v127h59q86 0 123 43.5t37 140.5v381q0 84 22.5 150.5t71.5 118t132.5 79t197.5 27.5v-70q-133 -5 -196.5 -81t-63.5 -242v-385q0 -172 -158 -213v-25q158 -41 158 -213v-385q0 -166 63.5 -242t196.5 -81v-70q-114 0 -197.5 27.5t-132.5 79t-71.5 118t-22.5 150.5
v381q0 97 -37 140.5t-123 43.5h-59z" />
    <glyph glyph-name="bar" unicode="|" horiz-adv-x="497" 
d="M164 -410v1936h170v-1936h-170z" />
    <glyph glyph-name="braceright" unicode="}" horiz-adv-x="792" 
d="M711 516h-60q-86 0 -122.5 -43.5t-36.5 -140.5v-381q0 -84 -22.5 -150.5t-71.5 -118t-132.5 -79t-197.5 -27.5v70q133 5 196.5 81t63.5 242v385q0 173 157 213v25q-157 40 -157 213v385q0 166 -63.5 242t-196.5 81v70q114 0 197.5 -27.5t132.5 -79t71.5 -118t22.5 -150.5
v-381q0 -97 36.5 -140.5t122.5 -43.5h60v-127z" />
    <glyph glyph-name="asciitilde" unicode="~" horiz-adv-x="1009" 
d="M676 362q-48 0 -92 18.5t-75 45t-58 52.5t-53 44.5t-48 18.5q-55 0 -55 -76v-98h-121v125q0 86 44 123.5t114 37.5q51 0 95.5 -18.5t75 -44.5t56.5 -52t52.5 -44.5t50.5 -18.5q53 0 53 76v98h121v-125q0 -84 -48.5 -123t-111.5 -39z" />
    <glyph glyph-name="exclamdown" unicode="&#xa1;" horiz-adv-x="434" 
d="M111 1024h213v-180h-213v180zM162 625h110l27 -963h-164z" />
    <glyph glyph-name="cent" unicode="&#xa2;" horiz-adv-x="1048" 
d="M885 819q-3 -127 -78.5 -209.5t-202.5 -101.5v-154h-137v152q-141 20 -222 123t-81 264t81 265t222 124v152h137v-152q124 -19 195.5 -97.5t77.5 -205.5h-125q-12 95 -67 143.5t-148 48.5q-236 0 -236 -278q0 -141 56.5 -209t174.5 -68q101 0 159 52.5t67 150.5h127z" />
    <glyph glyph-name="sterling" unicode="&#xa3;" horiz-adv-x="1140" 
d="M496 129h481v-129h-813v129h168v393h-144v129h144v152h-144v129h144v262q0 126 59 183t203 57h340v-134h-438v-368h335v-129h-335v-152h335v-129h-335v-393z" />
    <glyph glyph-name="yen" unicode="&#xa5;" horiz-adv-x="1308" 
d="M1251 1362l-448 -774h262v-111h-326v-123h326v-112h-326v-242h-170v242h-323v112h323v123h-323v111h260l-449 774h195l309 -563q19 -37 53 -107.5t41 -85.5q94 192 95 193l311 563h190z" />
    <glyph glyph-name="brokenbar" unicode="&#xa6;" horiz-adv-x="497" 
d="M164 721v805h170v-805h-170zM164 -410v805h170v-805h-170z" />
    <glyph glyph-name="section" unicode="&#xa7;" horiz-adv-x="1148" 
d="M158 -66h133q0 -134 73.5 -199t225.5 -65q137 0 199.5 42.5t62.5 133.5q0 74 -39.5 112.5t-132.5 53.5l-227 35q-265 41 -265 270q0 274 392 295q139 9 201.5 48t62.5 126q0 74 -41 113.5t-133 52.5l-228 35q-262 41 -262 273q0 134 104.5 212t284.5 78q185 0 289 -86
t111 -247h-133q-18 223 -267 223q-121 0 -185.5 -45.5t-64.5 -130.5q0 -124 148 -148l240 -37q140 -20 208 -88t68 -186q0 -151 -96.5 -220t-306.5 -87q-133 -12 -192.5 -50.5t-59.5 -119.5q0 -129 149 -152l240 -37q140 -22 207 -89t67 -185q0 -157 -97.5 -231t-303.5 -74
q-213 0 -324 95.5t-108 278.5z" />
    <glyph glyph-name="dieresis" unicode="&#xa8;" horiz-adv-x="1228" 
d="M88 1192v170h199v-170h-199zM465 1192v170h199v-170h-199z" />
    <glyph glyph-name="copyright" unicode="&#xa9;" horiz-adv-x="1763" 
d="M883 -37q-197 0 -363.5 96t-263 261.5t-96.5 361.5q0 145 57 277.5t153.5 229t230.5 153.5t282 57q147 0 280.5 -57t230 -153.5t153.5 -229t57 -277.5q0 -196 -96.5 -361.5t-262.5 -261.5t-362 -96zM883 109q117 0 222 45.5t180.5 122t120 182.5t44.5 223
q0 154 -75 285.5t-205.5 208.5t-286.5 77q-157 0 -288 -77t-206.5 -208.5t-75.5 -285.5q0 -156 75.5 -288t206.5 -208.5t288 -76.5zM506 682q0 186 104 297t281 111q161 0 255.5 -84.5t100.5 -235.5h-133q-9 100 -65 151.5t-154 51.5q-125 0 -185.5 -71.5t-60.5 -219.5
q0 -149 59.5 -220t182.5 -71q104 0 164.5 54.5t70.5 160.5h131q-3 -150 -103.5 -241t-262.5 -91q-178 0 -281.5 110.5t-103.5 297.5z" />
    <glyph glyph-name="guillemotleft" unicode="&#xab;" horiz-adv-x="1327" 
d="M117 506v12l422 506h192l-436 -512l436 -512h-192zM606 506v12l422 506h193l-437 -512l437 -512h-193z" />
    <glyph glyph-name="logicalnot" unicode="&#xac;" horiz-adv-x="1167" 
d="M993 573v-340h-135v216h-684v124h819z" />
    <glyph glyph-name="registered" unicode="&#xae;" horiz-adv-x="1173" 
d="M586 1399q193 0 329 -135t136 -326q0 -194 -136.5 -330.5t-328.5 -136.5t-327.5 136t-135.5 331q0 191 135 326t328 135zM588 571q150 0 255 108t105 259t-104.5 256.5t-255.5 105.5q-153 0 -258 -106t-105 -256q0 -152 105 -259.5t258 -107.5zM793 1042q0 -43 -24.5 -74
t-68.5 -40q76 -13 76 -103v-43q0 -48 10 -86h-88q-12 40 -12 84v41q0 39 -18 57.5t-58 18.5h-108v-201h-92v478h227q73 0 114.5 -35t41.5 -97zM618 969q74 0 74 65q0 64 -67 64h-123v-129h116z" />
    <glyph glyph-name="macron" unicode="&#xaf;" horiz-adv-x="1228" 
d="M193 1362h686v-125h-686v125z" />
    <glyph glyph-name="degree" unicode="&#xb0;" horiz-adv-x="827" 
d="M414 836q-147 0 -234.5 92.5t-87.5 226.5q0 130 87.5 220.5t234.5 90.5t234 -90.5t87 -220.5q0 -134 -87 -226.5t-234 -92.5zM219 1153q0 -88 57 -143.5t138 -55.5q82 0 138 55t56 144q0 92 -55.5 144.5t-138.5 52.5q-82 0 -138.5 -52.5t-56.5 -144.5z" />
    <glyph glyph-name="plusminus" unicode="&#xb1;" horiz-adv-x="1091" 
d="M614 745h338v-124h-338v-248h-135v248h-340v124h340v244h135v-244zM139 143v127h813v-127h-813z" />
    <glyph glyph-name="acute" unicode="&#xb4;" horiz-adv-x="1228" 
d="M541 1278l-451 -129l-29 63l431 191z" />
    <glyph glyph-name="uni00B5" unicode="&#xb5;" horiz-adv-x="1198" 
d="M885 1024h164v-1024h-164v248q-95 -281 -369 -281q-141 0 -231 78v-455h-156v1434h164v-635q0 -161 65 -224t193 -63q160 0 247 138t87 393v391z" />
    <glyph glyph-name="paragraph" unicode="&#xb6;" horiz-adv-x="1337" 
d="M870 1362v-1772h-170v975h-157q-109 0 -192 31.5t-131.5 87.5t-72.5 126.5t-24 154.5q0 85 23.5 155t72 125t130 86t188.5 31h333zM1001 1362h173v-1772h-173v1772z" />
    <glyph glyph-name="periodcentered" unicode="&#xb7;" horiz-adv-x="296" 
d="M43 414v180h213v-180h-213z" />
    <glyph glyph-name="cedilla" unicode="&#xb8;" horiz-adv-x="1228" 
d="M123 -334v115h162l-70 266h129l62 -231q19 -74 -12.5 -112t-96.5 -38h-174z" />
    <glyph glyph-name="guillemotright" unicode="&#xbb;" horiz-adv-x="1327" 
d="M721 506l-422 -506h-193l437 512l-437 512h193l422 -506v-12zM1210 506l-422 -506h-192l436 512l-436 512h192l422 -506v-12z" />
    <glyph glyph-name="questiondown" unicode="&#xbf;" horiz-adv-x="1284" 
d="M735 1024v-180h-213v180h213zM758 508v-139h-109q-364 0 -364 -306q0 -130 80.5 -213t232.5 -83q359 0 379 360h174q-4 -80 -22.5 -149.5t-59.5 -135.5t-102 -113t-155.5 -75.5t-213.5 -28.5q-125 0 -221.5 34.5t-154.5 94.5t-87 135t-29 162q0 212 142.5 334.5
t388.5 122.5h121z" />
    <glyph glyph-name="Agrave" unicode="&#xc0;" horiz-adv-x="1431" 
d="M958 1544l-28 -63l-451 129l49 125zM1188 0l-133 348h-676l-133 -348h-170l516 1362h252l516 -1362h-172zM430 485h574l-287 754z" />
    <glyph glyph-name="Aacute" unicode="&#xc1;" horiz-adv-x="1431" 
d="M958 1610l-450 -129l-29 63l430 191zM1188 0l-133 348h-676l-133 -348h-170l516 1362h252l516 -1362h-172zM430 485h574l-287 754z" />
    <glyph glyph-name="Acircumflex" unicode="&#xc2;" horiz-adv-x="1431" 
d="M719 1661l-215 -164l-80 82l227 164h135l228 -164l-80 -82zM1188 0l-133 348h-676l-133 -348h-170l516 1362h252l516 -1362h-172zM430 485h574l-287 754z" />
    <glyph glyph-name="Atilde" unicode="&#xc3;" horiz-adv-x="1431" 
d="M543 1583v-43h-121v53q0 67 42.5 99t108.5 32q52 0 108 -23.5t100.5 -47t68.5 -23.5q45 0 45 47v43h121v-53q0 -67 -43 -99t-109 -32q-41 0 -98.5 23.5t-106.5 47t-71 23.5q-45 0 -45 -47zM1188 0l-133 348h-676l-133 -348h-170l516 1362h252l516 -1362h-172zM430 485
h574l-287 754z" />
    <glyph glyph-name="Adieresis" unicode="&#xc4;" horiz-adv-x="1431" 
d="M641 1681v-170h-197v170h197zM991 1681v-170h-198v170h198zM1188 0l-133 348h-676l-133 -348h-170l516 1362h252l516 -1362h-172zM430 485h574l-287 754z" />
    <glyph glyph-name="Aring" unicode="&#xc5;" horiz-adv-x="1431" 
d="M719 1458q-71 0 -113.5 45t-42.5 109q0 63 42.5 107t113.5 44t113 -44t42 -107q0 -64 -42 -109t-113 -45zM719 1686q-30 0 -51 -20t-21 -54q0 -33 21 -54.5t51 -21.5t51 21.5t21 54.5q0 34 -21 54t-51 20zM1188 0l-133 348h-676l-133 -348h-170l516 1362h252l516 -1362
h-172zM430 485h574l-287 754z" />
    <glyph glyph-name="AE" unicode="&#xc6;" horiz-adv-x="2144" 
d="M1171 137h844v-137h-1011v348h-562l-219 -348h-172v8l856 1354h1102v-137h-838v-457h777v-135h-777v-496zM530 487h474v752z" />
    <glyph glyph-name="Ccedilla" unicode="&#xc7;" horiz-adv-x="1548" 
d="M1446 543q-16 -254 -158 -405t-418 -171l41 -151q19 -74 -12 -112t-96 -38h-174v115h162l-50 186q-158 7 -279.5 63.5t-197 152.5t-113.5 221.5t-38 277.5q0 156 41.5 285.5t124 226.5t214.5 151t304 54q590 0 643 -545h-172q-22 201 -139 302t-336 101q-502 0 -502 -575
q0 -288 122 -432t375 -144q228 0 349 113t135 324h174z" />
    <glyph glyph-name="Egrave" unicode="&#xc8;" horiz-adv-x="1282" 
d="M864 1544l-28 -63l-451 129l49 125zM309 137h844v-137h-1014v1362h1008v-137h-838v-457h776v-135h-776v-496z" />
    <glyph glyph-name="Eacute" unicode="&#xc9;" horiz-adv-x="1282" 
d="M864 1610l-450 -129l-29 63l430 191zM309 137h844v-137h-1014v1362h1008v-137h-838v-457h776v-135h-776v-496z" />
    <glyph glyph-name="Ecircumflex" unicode="&#xca;" horiz-adv-x="1282" 
d="M625 1661l-215 -164l-80 82l227 164h135l228 -164l-80 -82zM309 137h844v-137h-1014v1362h1008v-137h-838v-457h776v-135h-776v-496z" />
    <glyph glyph-name="Edieresis" unicode="&#xcb;" horiz-adv-x="1282" 
d="M549 1681v-170h-197v170h197zM899 1681v-170h-199v170h199zM309 137h844v-137h-1014v1362h1008v-137h-838v-457h776v-135h-776v-496z" />
    <glyph glyph-name="Igrave" unicode="&#xcc;" horiz-adv-x="1019" 
d="M750 1544l-29 -63l-451 129l49 125zM883 1225h-289v-1088h289v-137h-746v137h289v1088h-289v137h746v-137z" />
    <glyph glyph-name="Iacute" unicode="&#xcd;" horiz-adv-x="1019" 
d="M748 1610l-451 -129l-29 63l430 191zM883 1225h-289v-1088h289v-137h-746v137h289v1088h-289v137h746v-137z" />
    <glyph glyph-name="Icircumflex" unicode="&#xce;" horiz-adv-x="1019" 
d="M510 1661l-215 -164l-80 82l227 164h136l227 -164l-80 -82zM883 1225h-289v-1088h289v-137h-746v137h289v1088h-289v137h746v-137z" />
    <glyph glyph-name="Idieresis" unicode="&#xcf;" horiz-adv-x="1019" 
d="M432 1681v-170h-196v170h196zM782 1681v-170h-198v170h198zM883 1225h-289v-1088h289v-137h-746v137h289v1088h-289v137h746v-137z" />
    <glyph glyph-name="Eth" unicode="&#xd0;" horiz-adv-x="1611" 
d="M874 1362q163 0 287.5 -53t199 -147.5t111.5 -214.5t37 -263q0 -145 -37 -266t-111.5 -216t-199 -148.5t-287.5 -53.5h-563v606h-243v137h243v619h563zM846 137q134 0 228.5 36t150.5 108.5t81 170.5t25 232q0 271 -111.5 406t-373.5 135h-367v-482h408v-137h-408v-469
h367z" />
    <glyph glyph-name="Ntilde" unicode="&#xd1;" horiz-adv-x="1439" 
d="M545 1583v-43h-121v53q0 67 42.5 99t108.5 32q52 0 108 -23.5t100.5 -47t68.5 -23.5q45 0 45 47v43h121v-53q0 -67 -43 -99t-109 -32q-41 0 -98.5 23.5t-106.5 47t-71 23.5q-45 0 -45 -47zM1130 1362h168v-1362h-284l-619 1069q-48 91 -86 178v-1247h-170v1362h287
l618 -1071q35 -61 86 -176v1247z" />
    <glyph glyph-name="Ograve" unicode="&#xd2;" horiz-adv-x="1583" 
d="M551 1610l49 125l430 -191l-29 -63zM791 -35q-173 0 -304.5 53.5t-212.5 151t-121 226t-40 286.5q0 156 40 284t120.5 226t212.5 152.5t305 54.5t305 -55t212.5 -153t121 -226.5t40.5 -282.5q0 -157 -40.5 -285.5t-121 -226t-212.5 -151.5t-305 -54zM291 682
q0 -291 121 -433.5t379 -142.5t379.5 142.5t121.5 433.5q0 290 -121.5 432.5t-379.5 142.5t-379 -142t-121 -433z" />
    <glyph glyph-name="Oacute" unicode="&#xd3;" horiz-adv-x="1583" 
d="M1030 1610l-450 -129l-29 63l430 191zM791 -35q-173 0 -304.5 53.5t-212.5 151t-121 226t-40 286.5q0 156 40 284t120.5 226t212.5 152.5t305 54.5t305 -55t212.5 -153t121 -226.5t40.5 -282.5q0 -157 -40.5 -285.5t-121 -226t-212.5 -151.5t-305 -54zM291 682
q0 -291 121 -433.5t379 -142.5t379.5 142.5t121.5 433.5q0 290 -121.5 432.5t-379.5 142.5t-379 -142t-121 -433z" />
    <glyph glyph-name="Ocircumflex" unicode="&#xd4;" horiz-adv-x="1583" 
d="M496 1579l227 164h135l227 -164l-79 -82l-215 164l-216 -164zM791 -35q-173 0 -304.5 53.5t-212.5 151t-121 226t-40 286.5q0 156 40 284t120.5 226t212.5 152.5t305 54.5t305 -55t212.5 -153t121 -226.5t40.5 -282.5q0 -157 -40.5 -285.5t-121 -226t-212.5 -151.5
t-305 -54zM291 682q0 -291 121 -433.5t379 -142.5t379.5 142.5t121.5 433.5q0 290 -121.5 432.5t-379.5 142.5t-379 -142t-121 -433z" />
    <glyph glyph-name="Otilde" unicode="&#xd5;" horiz-adv-x="1583" 
d="M936 1536q-41 0 -98.5 23.5t-107 47t-71.5 23.5q-45 0 -45 -47v-43h-120v53q0 67 42.5 99t108.5 32q52 0 108 -23.5t100.5 -47t68.5 -23.5q45 0 45 47v43h120v-53q0 -67 -42.5 -99t-108.5 -32zM791 -35q-173 0 -304.5 53.5t-212.5 151t-121 226t-40 286.5q0 156 40 284
t120.5 226t212.5 152.5t305 54.5t305 -55t212.5 -153t121 -226.5t40.5 -282.5q0 -157 -40.5 -285.5t-121 -226t-212.5 -151.5t-305 -54zM291 682q0 -291 121 -433.5t379 -142.5t379.5 142.5t121.5 433.5q0 290 -121.5 432.5t-379.5 142.5t-379 -142t-121 -433z" />
    <glyph glyph-name="Odieresis" unicode="&#xd6;" horiz-adv-x="1583" 
d="M518 1511v170h197v-170h-197zM866 1511v170h199v-170h-199zM791 -35q-173 0 -304.5 53.5t-212.5 151t-121 226t-40 286.5q0 156 40 284t120.5 226t212.5 152.5t305 54.5t305 -55t212.5 -153t121 -226.5t40.5 -282.5q0 -157 -40.5 -285.5t-121 -226t-212.5 -151.5
t-305 -54zM291 682q0 -291 121 -433.5t379 -142.5t379.5 142.5t121.5 433.5q0 290 -121.5 432.5t-379.5 142.5t-379 -142t-121 -433z" />
    <glyph glyph-name="multiply" unicode="&#xd7;" horiz-adv-x="1167" 
d="M1024 883l-348 -348l344 -345l-90 -90l-344 344l-346 -346l-97 95l346 348l-344 344l91 88l344 -344l348 350z" />
    <glyph glyph-name="Oslash" unicode="&#xd8;" horiz-adv-x="1583" 
d="M1118 1333q177 -82 264.5 -252.5t87.5 -398.5q0 -157 -40.5 -285.5t-121 -226t-212.5 -151.5t-305 -54q-103 0 -203 23l-142 -357l-133 47l140 355q-170 82 -255 251.5t-85 397.5q0 156 40 284t120.5 226t212.5 152.5t305 54.5q105 0 194 -21l100 254l134 -47zM291 682
q0 -388 217 -512l424 1075q-64 12 -141 12q-258 0 -379 -142t-121 -433zM791 106q258 0 379.5 142.5t121.5 433.5q0 394 -227 516l-426 -1077q71 -15 152 -15z" />
    <glyph glyph-name="Ugrave" unicode="&#xd9;" horiz-adv-x="1378" 
d="M451 1610l49 125l430 -191l-29 -63zM137 487v875h168v-854q0 -115 24 -193t74 -123t119 -64t168 -19t167.5 19t118.5 64t73.5 123t23.5 193v854h170v-875q0 -254 -137 -387t-416 -133q-553 0 -553 520z" />
    <glyph glyph-name="Uacute" unicode="&#xda;" horiz-adv-x="1378" 
d="M928 1610l-451 -129l-28 63l430 191zM137 487v875h168v-854q0 -115 24 -193t74 -123t119 -64t168 -19t167.5 19t118.5 64t73.5 123t23.5 193v854h170v-875q0 -254 -137 -387t-416 -133q-553 0 -553 520z" />
    <glyph glyph-name="Ucircumflex" unicode="&#xdb;" horiz-adv-x="1378" 
d="M395 1579l228 164h135l227 -164l-80 -82l-215 164l-215 -164zM137 487v875h168v-854q0 -115 24 -193t74 -123t119 -64t168 -19t167.5 19t118.5 64t73.5 123t23.5 193v854h170v-875q0 -254 -137 -387t-416 -133q-553 0 -553 520z" />
    <glyph glyph-name="Udieresis" unicode="&#xdc;" horiz-adv-x="1378" 
d="M416 1511v170h196v-170h-196zM764 1511v170h199v-170h-199zM137 487v875h168v-854q0 -115 24 -193t74 -123t119 -64t168 -19t167.5 19t118.5 64t73.5 123t23.5 193v854h170v-875q0 -254 -137 -387t-416 -133q-553 0 -553 520z" />
    <glyph glyph-name="Yacute" unicode="&#xdd;" horiz-adv-x="1308" 
d="M895 1610l-451 -129l-28 63l430 191zM1061 1362h190l-512 -885v-477h-170v477l-512 885h195l309 -563q66 -126 94 -174q6 11 41.5 75t53.5 99z" />
    <glyph glyph-name="Thorn" unicode="&#xde;" horiz-adv-x="1261" 
d="M764 1079q107 0 187.5 -31t129 -86t72 -125.5t23.5 -154.5t-24 -154.5t-72.5 -126t-131.5 -87t-192 -31.5h-445v-283h-172v1362h172v-283h453zM721 420q276 0 276 262q0 127 -63.5 193.5t-206.5 66.5h-416v-522h410z" />
    <glyph glyph-name="germandbls" unicode="&#xdf;" horiz-adv-x="1304" 
d="M139 0v907q0 479 549 479q127 0 223 -28.5t151.5 -78.5t82 -111t26.5 -134q0 -138 -71.5 -221.5t-181.5 -101.5q119 -16 197.5 -104t78.5 -240q0 -171 -105 -269t-311 -98h-256v137h240q254 0 254 248q0 127 -69 193.5t-218 66.5h-207v137h203q268 0 268 228
q0 115 -77.5 176t-233.5 61q-373 0 -373 -334v-913h-170z" />
    <glyph glyph-name="agrave" unicode="&#xe0;" horiz-adv-x="1122" 
d="M338 1278l49 125l430 -191l-26 -63zM457 -27q-152 0 -245 77.5t-93 219.5q0 128 74.5 204.5t236.5 103.5l260 43q84 14 119 40.5t35 83.5q0 87 -56.5 136t-195.5 49q-270 0 -287 -228h-162q5 166 119.5 261.5t323.5 95.5q203 0 305 -85t102 -229v-491q0 -124 13 -254
h-150q-14 154 -14 240q-16 -50 -44 -94t-73 -85t-114 -64.5t-154 -23.5zM489 102q88 0 157 32t111.5 86.5t64.5 122t22 142.5v88q-60 -43 -185 -69l-170 -35q-107 -22 -155.5 -66.5t-48.5 -126.5q0 -85 55 -129.5t149 -44.5z" />
    <glyph glyph-name="aacute" unicode="&#xe1;" horiz-adv-x="1122" 
d="M811 1278l-451 -129l-28 63l430 191zM457 -27q-152 0 -245 77.5t-93 219.5q0 128 74.5 204.5t236.5 103.5l260 43q84 14 119 40.5t35 83.5q0 87 -56.5 136t-195.5 49q-270 0 -287 -228h-162q5 166 119.5 261.5t323.5 95.5q203 0 305 -85t102 -229v-491q0 -124 13 -254
h-150q-14 154 -14 240q-16 -50 -44 -94t-73 -85t-114 -64.5t-154 -23.5zM489 102q88 0 157 32t111.5 86.5t64.5 122t22 142.5v88q-60 -43 -185 -69l-170 -35q-107 -22 -155.5 -66.5t-48.5 -126.5q0 -85 55 -129.5t149 -44.5z" />
    <glyph glyph-name="acircumflex" unicode="&#xe2;" horiz-adv-x="1122" 
d="M276 1196l228 166h135l227 -166l-80 -80l-215 162l-215 -162zM457 -27q-152 0 -245 77.5t-93 219.5q0 128 74.5 204.5t236.5 103.5l260 43q84 14 119 40.5t35 83.5q0 87 -56.5 136t-195.5 49q-270 0 -287 -228h-162q5 166 119.5 261.5t323.5 95.5q203 0 305 -85t102 -229
v-491q0 -124 13 -254h-150q-14 154 -14 240q-16 -50 -44 -94t-73 -85t-114 -64.5t-154 -23.5zM489 102q88 0 157 32t111.5 86.5t64.5 122t22 142.5v88q-60 -43 -185 -69l-170 -35q-107 -22 -155.5 -66.5t-48.5 -126.5q0 -85 55 -129.5t149 -44.5z" />
    <glyph glyph-name="atilde" unicode="&#xe3;" horiz-adv-x="1122" 
d="M717 1180q-41 0 -98.5 23t-107 46t-71.5 23q-45 0 -45 -45v-43h-121v51q0 67 43 99t109 32q52 0 108 -23t100 -46t68 -23q46 0 46 45v43h120v-53q0 -66 -42.5 -97.5t-108.5 -31.5zM457 -27q-152 0 -245 77.5t-93 219.5q0 128 74.5 204.5t236.5 103.5l260 43
q84 14 119 40.5t35 83.5q0 87 -56.5 136t-195.5 49q-270 0 -287 -228h-162q5 166 119.5 261.5t323.5 95.5q203 0 305 -85t102 -229v-491q0 -124 13 -254h-150q-14 154 -14 240q-16 -50 -44 -94t-73 -85t-114 -64.5t-154 -23.5zM489 102q88 0 157 32t111.5 86.5t64.5 122
t22 142.5v88q-60 -43 -185 -69l-170 -35q-107 -22 -155.5 -66.5t-48.5 -126.5q0 -85 55 -129.5t149 -44.5z" />
    <glyph glyph-name="adieresis" unicode="&#xe4;" horiz-adv-x="1122" 
d="M283 1192v170h198v-170h-198zM659 1192v170h199v-170h-199zM457 -27q-152 0 -245 77.5t-93 219.5q0 128 74.5 204.5t236.5 103.5l260 43q84 14 119 40.5t35 83.5q0 87 -56.5 136t-195.5 49q-270 0 -287 -228h-162q5 166 119.5 261.5t323.5 95.5q203 0 305 -85t102 -229
v-491q0 -124 13 -254h-150q-14 154 -14 240q-16 -50 -44 -94t-73 -85t-114 -64.5t-154 -23.5zM489 102q88 0 157 32t111.5 86.5t64.5 122t22 142.5v88q-60 -43 -185 -69l-170 -35q-107 -22 -155.5 -66.5t-48.5 -126.5q0 -85 55 -129.5t149 -44.5z" />
    <glyph glyph-name="aring" unicode="&#xe5;" horiz-adv-x="1122" 
d="M571 1143q-64 0 -101.5 39.5t-37.5 97.5q0 56 37.5 95.5t101.5 39.5t102 -39.5t38 -95.5q0 -58 -38 -97.5t-102 -39.5zM506 1280q0 -30 19 -50t46 -20t46.5 20t19.5 50t-19.5 49t-46.5 19t-46 -19t-19 -49zM457 -27q-152 0 -245 77.5t-93 219.5q0 128 74.5 204.5
t236.5 103.5l260 43q84 14 119 40.5t35 83.5q0 87 -56.5 136t-195.5 49q-270 0 -287 -228h-162q5 166 119.5 261.5t323.5 95.5q203 0 305 -85t102 -229v-491q0 -124 13 -254h-150q-14 154 -14 240q-16 -50 -44 -94t-73 -85t-114 -64.5t-154 -23.5zM489 102q88 0 157 32
t111.5 86.5t64.5 122t22 142.5v88q-60 -43 -185 -69l-170 -35q-107 -22 -155.5 -66.5t-48.5 -126.5q0 -85 55 -129.5t149 -44.5z" />
    <glyph glyph-name="ae" unicode="&#xe6;" horiz-adv-x="1925" 
d="M1358 92q271 0 321 223h152q-6 -50 -24.5 -96.5t-56 -93t-89.5 -81t-132 -56t-177 -21.5q-167 0 -280 69.5t-169 192.5q-56 -114 -167.5 -185t-262.5 -71q-154 0 -254 78t-100 219q0 128 74.5 204.5t236.5 103.5l260 43q84 14 119 40.5t35 83.5q0 87 -56.5 136t-195.5 49
q-270 0 -287 -228h-162q5 166 119.5 261.5t323.5 95.5q293 0 370 -178q136 176 396 176q226 0 352.5 -140.5t126.5 -369.5q0 -47 -2 -72h-825q9 -202 100.5 -292.5t253.5 -90.5zM1354 932q-153 0 -241 -79.5t-105 -254.5h663q-11 334 -317 334zM844 485v88q-60 -43 -185 -69
l-170 -35q-107 -22 -155.5 -66.5t-48.5 -126.5q0 -85 55.5 -129.5t148.5 -44.5q88 0 157.5 32t112 86.5t64 122t21.5 142.5z" />
    <glyph glyph-name="ccedilla" unicode="&#xe7;" horiz-adv-x="1185" 
d="M1100 391q-8 -167 -114.5 -282t-295.5 -138l41 -155q19 -74 -12 -112t-96 -38h-174v115h161l-49 188q-221 15 -342 164t-121 379q0 242 135 393.5t377 151.5q222 0 343 -111t134 -297h-153q-19 130 -99 202.5t-219 72.5q-352 0 -352 -412q0 -215 89 -313.5t257 -98.5
q150 0 234 77.5t100 213.5h156z" />
    <glyph glyph-name="egrave" unicode="&#xe8;" horiz-adv-x="1179" 
d="M838 1212l-27 -63l-453 129l50 125zM612 92q270 0 324 223h149q-6 -50 -24.5 -96.5t-55.5 -93t-89 -81t-132 -56t-178 -21.5q-129 0 -227.5 41.5t-159 116.5t-91 173t-30.5 216q0 156 55 276.5t171.5 193.5t281.5 73q226 0 353.5 -140.5t127.5 -369.5q0 -47 -4 -72h-823
q9 -202 99.5 -292.5t252.5 -90.5zM608 932q-152 0 -239.5 -79.5t-104.5 -254.5h664q-6 172 -89 253t-231 81z" />
    <glyph glyph-name="eacute" unicode="&#xe9;" horiz-adv-x="1179" 
d="M831 1278l-450 -129l-29 63l430 191zM612 92q270 0 324 223h149q-6 -50 -24.5 -96.5t-55.5 -93t-89 -81t-132 -56t-178 -21.5q-129 0 -227.5 41.5t-159 116.5t-91 173t-30.5 216q0 156 55 276.5t171.5 193.5t281.5 73q226 0 353.5 -140.5t127.5 -369.5q0 -47 -4 -72h-823
q9 -202 99.5 -292.5t252.5 -90.5zM608 932q-152 0 -239.5 -79.5t-104.5 -254.5h664q-6 172 -89 253t-231 81z" />
    <glyph glyph-name="ecircumflex" unicode="&#xea;" horiz-adv-x="1179" 
d="M594 1278l-215 -162l-80 80l227 166h136l227 -166l-80 -80zM612 92q270 0 324 223h149q-6 -50 -24.5 -96.5t-55.5 -93t-89 -81t-132 -56t-178 -21.5q-129 0 -227.5 41.5t-159 116.5t-91 173t-30.5 216q0 156 55 276.5t171.5 193.5t281.5 73q226 0 353.5 -140.5
t127.5 -369.5q0 -47 -4 -72h-823q9 -202 99.5 -292.5t252.5 -90.5zM608 932q-152 0 -239.5 -79.5t-104.5 -254.5h664q-6 172 -89 253t-231 81z" />
    <glyph glyph-name="edieresis" unicode="&#xeb;" horiz-adv-x="1179" 
d="M504 1362v-170h-199v170h199zM881 1362v-170h-199v170h199zM612 92q270 0 324 223h149q-6 -50 -24.5 -96.5t-55.5 -93t-89 -81t-132 -56t-178 -21.5q-129 0 -227.5 41.5t-159 116.5t-91 173t-30.5 216q0 156 55 276.5t171.5 193.5t281.5 73q226 0 353.5 -140.5
t127.5 -369.5q0 -47 -4 -72h-823q9 -202 99.5 -292.5t252.5 -90.5zM608 932q-152 0 -239.5 -79.5t-104.5 -254.5h664q-6 172 -89 253t-231 81z" />
    <glyph glyph-name="igrave" unicode="&#xec;" horiz-adv-x="464" 
d="M-2 1278l49 125l430 -191l-26 -63zM150 0v1024h163v-1024h-163z" />
    <glyph glyph-name="iacute" unicode="&#xed;" horiz-adv-x="464" 
d="M471 1278l-451 -129l-28 63l430 191zM150 0v1024h163v-1024h-163z" />
    <glyph glyph-name="icircumflex" unicode="&#xee;" horiz-adv-x="464" 
d="M-63 1196l227 166h135l227 -166l-80 -80l-215 162l-215 -162zM150 0v1024h163v-1024h-163z" />
    <glyph glyph-name="idieresis" unicode="&#xef;" horiz-adv-x="464" 
d="M-57 1192v170h198v-170h-198zM319 1192v170h199v-170h-199zM150 0v1024h163v-1024h-163z" />
    <glyph glyph-name="eth" unicode="&#xf0;" horiz-adv-x="1214" 
d="M815 1376q158 -109 228.5 -285.5t70.5 -461.5q0 -343 -128 -502.5t-378 -159.5q-128 0 -226.5 41t-159.5 114.5t-91.5 172t-30.5 217.5q0 120 28.5 218.5t85 172t147 114t208.5 40.5q138 0 236 -59t151 -169q0 277 -235 443l-129 -146l-86 72l119 133q-76 39 -162 68
l59 117q132 -46 195 -80l127 141l86 -72zM602 100q169 0 261.5 101t92.5 311t-92.5 311t-261.5 101q-173 0 -254.5 -101.5t-81.5 -310.5q0 -208 81.5 -310t254.5 -102z" />
    <glyph glyph-name="ntilde" unicode="&#xf1;" horiz-adv-x="1200" 
d="M426 1227v-43h-121v51q0 67 43 99t109 32q52 0 108 -23t100 -46t68 -23q45 0 45 45v43h121v-53q0 -66 -42.5 -97.5t-108.5 -31.5q-41 0 -98.5 23t-107 46t-71.5 23q-45 0 -45 -45zM707 1057q189 0 276.5 -101t87.5 -303v-653h-164v635q0 156 -62.5 220.5t-182.5 64.5
q-171 0 -260 -133t-89 -396v-391h-163v1024h163v-268q49 144 147.5 222.5t246.5 78.5z" />
    <glyph glyph-name="ograve" unicode="&#xf2;" horiz-adv-x="1226" 
d="M379 1278l49 125l430 -191l-27 -63zM614 -33q-127 0 -226.5 42t-162 116t-95 173t-32.5 216q0 92 20 173.5t62 149.5t102.5 117t145 76t186.5 27q126 0 225 -42t161.5 -116t95 -172t32.5 -213q0 -117 -32.5 -215.5t-95 -173t-161.5 -116.5t-225 -42zM264 512
q0 -212 87 -312t263 -100t262.5 99.5t86.5 312.5q0 214 -86.5 313t-262.5 99t-263 -99t-87 -313z" />
    <glyph glyph-name="oacute" unicode="&#xf3;" horiz-adv-x="1226" 
d="M852 1278l-451 -129l-28 63l430 191zM614 -33q-127 0 -226.5 42t-162 116t-95 173t-32.5 216q0 92 20 173.5t62 149.5t102.5 117t145 76t186.5 27q126 0 225 -42t161.5 -116t95 -172t32.5 -213q0 -117 -32.5 -215.5t-95 -173t-161.5 -116.5t-225 -42zM264 512
q0 -212 87 -312t263 -100t262.5 99.5t86.5 312.5q0 214 -86.5 313t-262.5 99t-263 -99t-87 -313z" />
    <glyph glyph-name="ocircumflex" unicode="&#xf4;" horiz-adv-x="1226" 
d="M319 1196l228 166h135l227 -166l-80 -80l-215 162l-215 -162zM614 -33q-127 0 -226.5 42t-162 116t-95 173t-32.5 216q0 92 20 173.5t62 149.5t102.5 117t145 76t186.5 27q126 0 225 -42t161.5 -116t95 -172t32.5 -213q0 -117 -32.5 -215.5t-95 -173t-161.5 -116.5
t-225 -42zM264 512q0 -212 87 -312t263 -100t262.5 99.5t86.5 312.5q0 214 -86.5 313t-262.5 99t-263 -99t-87 -313z" />
    <glyph glyph-name="otilde" unicode="&#xf5;" horiz-adv-x="1226" 
d="M760 1180q-41 0 -98.5 23t-107 46t-71.5 23q-45 0 -45 -45v-43h-121v51q0 67 43 99t109 32q52 0 108 -23t100 -46t68 -23q46 0 46 45v43h120v-53q0 -66 -42.5 -97.5t-108.5 -31.5zM614 -33q-127 0 -226.5 42t-162 116t-95 173t-32.5 216q0 92 20 173.5t62 149.5
t102.5 117t145 76t186.5 27q126 0 225 -42t161.5 -116t95 -172t32.5 -213q0 -117 -32.5 -215.5t-95 -173t-161.5 -116.5t-225 -42zM264 512q0 -212 87 -312t263 -100t262.5 99.5t86.5 312.5q0 214 -86.5 313t-262.5 99t-263 -99t-87 -313z" />
    <glyph glyph-name="odieresis" unicode="&#xf6;" horiz-adv-x="1226" 
d="M326 1192v170h198v-170h-198zM702 1192v170h199v-170h-199zM614 -33q-127 0 -226.5 42t-162 116t-95 173t-32.5 216q0 92 20 173.5t62 149.5t102.5 117t145 76t186.5 27q126 0 225 -42t161.5 -116t95 -172t32.5 -213q0 -117 -32.5 -215.5t-95 -173t-161.5 -116.5
t-225 -42zM264 512q0 -212 87 -312t263 -100t262.5 99.5t86.5 312.5q0 214 -86.5 313t-262.5 99t-263 -99t-87 -313z" />
    <glyph glyph-name="divide" unicode="&#xf7;" horiz-adv-x="1155" 
d="M578 764q-55 0 -88 35t-33 84q0 48 33 82t88 34t87.5 -34t32.5 -82q0 -50 -32.5 -84.5t-87.5 -34.5zM137 573h883v-124h-883v124zM578 29q-55 0 -88 34.5t-33 83.5q0 48 33 82.5t88 34.5t87.5 -34.5t32.5 -82.5q0 -49 -32.5 -83.5t-87.5 -34.5z" />
    <glyph glyph-name="oslash" unicode="&#xf8;" horiz-adv-x="1226" 
d="M885 993q120 -67 181.5 -192.5t61.5 -286.5q0 -117 -32.5 -215.5t-95 -173t-161.5 -116.5t-225 -42q-66 0 -129 13l-108 -275l-125 43l108 275q-129 63 -195.5 192t-66.5 299q0 92 20 173.5t62 149.5t102.5 117t145 76t186.5 27q72 0 148 -17l90 228l125 -43zM264 512
q0 -272 146 -362l303 765q-47 9 -99 9q-176 0 -263 -99t-87 -313zM614 100q176 0 262.5 99.5t86.5 312.5q0 258 -129 352l-299 -758q38 -6 79 -6z" />
    <glyph glyph-name="ugrave" unicode="&#xf9;" horiz-adv-x="1198" 
d="M836 1212l-27 -63l-453 129l50 125zM885 1024h164v-1024h-164v260q-98 -293 -381 -293q-192 0 -283.5 100.5t-91.5 303.5v653h164v-635q0 -161 65 -224t193 -63q160 0 247 138t87 393v391z" />
    <glyph glyph-name="uacute" unicode="&#xfa;" horiz-adv-x="1198" 
d="M829 1278l-450 -129l-29 63l430 191zM885 1024h164v-1024h-164v260q-98 -293 -381 -293q-192 0 -283.5 100.5t-91.5 303.5v653h164v-635q0 -161 65 -224t193 -63q160 0 247 138t87 393v391z" />
    <glyph glyph-name="ucircumflex" unicode="&#xfb;" horiz-adv-x="1198" 
d="M590 1278l-215 -162l-80 80l227 166h135l228 -166l-80 -80zM885 1024h164v-1024h-164v260q-98 -293 -381 -293q-192 0 -283.5 100.5t-91.5 303.5v653h164v-635q0 -161 65 -224t193 -63q160 0 247 138t87 393v391z" />
    <glyph glyph-name="udieresis" unicode="&#xfc;" horiz-adv-x="1198" 
d="M500 1362v-170h-199v170h199zM877 1362v-170h-199v170h199zM885 1024h164v-1024h-164v260q-98 -293 -381 -293q-192 0 -283.5 100.5t-91.5 303.5v653h164v-635q0 -161 65 -224t193 -63q160 0 247 138t87 393v391z" />
    <glyph glyph-name="yacute" unicode="&#xfd;" horiz-adv-x="1138" 
d="M807 1278l-451 -129l-28 63l430 191zM926 1024h161l-481 -1194q-27 -71 -46.5 -108.5t-52 -71.5t-77.5 -47t-113 -13h-194v134h285l112 276h-57l-406 1024h172l314 -788l35 -99l30 99z" />
    <glyph glyph-name="thorn" unicode="&#xfe;" horiz-adv-x="1265" 
d="M696 1057q118 0 208.5 -41t147 -114.5t85 -172t28.5 -217.5q0 -120 -28.5 -218.5t-85 -172t-147 -114t-208.5 -40.5q-277 0 -387 228v-605h-164v1844h164v-607q111 230 387 230zM664 100q173 0 254 101.5t81 310.5q0 208 -81 310t-254 102q-169 0 -262 -101t-93 -311
t93 -311t262 -101z" />
    <glyph glyph-name="ydieresis" unicode="&#xff;" horiz-adv-x="1138" 
d="M479 1362v-170h-198v170h198zM856 1362v-170h-199v170h199zM926 1024h161l-481 -1194q-27 -71 -46.5 -108.5t-52 -71.5t-77.5 -47t-113 -13h-194v134h285l112 276h-57l-406 1024h172l314 -788l35 -99l30 99z" />
    <glyph glyph-name="Amacron" unicode="&#x100;" horiz-adv-x="1431" 
d="M1061 1688v-125h-686v125h686zM1188 0l-133 348h-676l-133 -348h-170l516 1362h252l516 -1362h-172zM430 485h574l-287 754z" />
    <glyph glyph-name="amacron" unicode="&#x101;" horiz-adv-x="1122" 
d="M229 1362h686v-125h-686v125zM457 -27q-152 0 -245 77.5t-93 219.5q0 128 74.5 204.5t236.5 103.5l260 43q84 14 119 40.5t35 83.5q0 87 -56.5 136t-195.5 49q-270 0 -287 -228h-162q5 166 119.5 261.5t323.5 95.5q203 0 305 -85t102 -229v-491q0 -124 13 -254h-150
q-14 154 -14 240q-16 -50 -44 -94t-73 -85t-114 -64.5t-154 -23.5zM489 102q88 0 157 32t111.5 86.5t64.5 122t22 142.5v88q-60 -43 -185 -69l-170 -35q-107 -22 -155.5 -66.5t-48.5 -126.5q0 -85 55 -129.5t149 -44.5z" />
    <glyph glyph-name="Abreve" unicode="&#x102;" horiz-adv-x="1431" 
d="M719 1509q-61 0 -108 19t-74 51t-41 67t-17 74h99q6 -52 42 -82t99 -30q64 0 100 30t41 82h101q-3 -39 -17.5 -74t-41.5 -67t-74.5 -51t-108.5 -19zM1188 0l-133 348h-676l-133 -348h-170l516 1362h252l516 -1362h-172zM430 485h574l-287 754z" />
    <glyph glyph-name="abreve" unicode="&#x103;" horiz-adv-x="1122" 
d="M332 1362h98q6 -53 42 -83t99 -30q64 0 100.5 30.5t41.5 82.5h100q-3 -39 -17.5 -74.5t-41.5 -67.5t-74 -50.5t-109 -18.5t-108.5 18.5t-73 50.5t-40.5 67t-17 75zM457 -27q-152 0 -245 77.5t-93 219.5q0 128 74.5 204.5t236.5 103.5l260 43q84 14 119 40.5t35 83.5
q0 87 -56.5 136t-195.5 49q-270 0 -287 -228h-162q5 166 119.5 261.5t323.5 95.5q203 0 305 -85t102 -229v-491q0 -124 13 -254h-150q-14 154 -14 240q-16 -50 -44 -94t-73 -85t-114 -64.5t-154 -23.5zM489 102q88 0 157 32t111.5 86.5t64.5 122t22 142.5v88
q-60 -43 -185 -69l-170 -35q-107 -22 -155.5 -66.5t-48.5 -126.5q0 -85 55 -129.5t149 -44.5z" />
    <glyph glyph-name="Aogonek" unicode="&#x104;" horiz-adv-x="1431" 
d="M1313 -213q54 0 106 16v-114q-54 -23 -116 -23q-114 0 -181 57.5t-67 159.5q0 121 102 197l-102 268h-676l-133 -348h-170l516 1362h252l516 -1362h-160q-22 -42 -22 -92q0 -60 38 -90.5t97 -30.5zM430 485h574l-287 754z" />
    <glyph glyph-name="aogonek" unicode="&#x105;" horiz-adv-x="1122" 
d="M1032 -213q55 0 107 16v-114q-54 -23 -117 -23q-114 0 -181 57.5t-67 159.5q0 104 76 176q-8 126 -8 181q-16 -50 -44 -94t-73 -85t-114 -64.5t-154 -23.5q-152 0 -245 77.5t-93 219.5q0 128 74.5 204.5t236.5 103.5l260 43q84 14 119 40.5t35 83.5q0 87 -56.5 136
t-195.5 49q-270 0 -287 -228h-162q5 166 119.5 261.5t323.5 95.5q203 0 305 -85t102 -229v-491q0 -124 13 -254h-86q-23 -44 -23 -92q0 -60 38 -90.5t97 -30.5zM844 485v88q-60 -43 -185 -69l-170 -35q-107 -22 -155.5 -66.5t-48.5 -126.5q0 -85 55 -129.5t149 -44.5
q88 0 157 32t111.5 86.5t64.5 122t22 142.5z" />
    <glyph glyph-name="Cacute" unicode="&#x106;" horiz-adv-x="1548" 
d="M1012 1610l-451 -129l-29 63l431 191zM793 -35q-172 0 -303.5 53.5t-213 150.5t-122.5 226t-41 287q0 156 41.5 285.5t124 226.5t214.5 151t304 54q590 0 643 -545h-172q-22 201 -139 302t-336 101q-502 0 -502 -575q0 -288 122 -432t375 -144q228 0 349 113t135 324h174
q-9 -133 -51 -237t-120 -181.5t-200 -118.5t-282 -41z" />
    <glyph glyph-name="cacute" unicode="&#x107;" horiz-adv-x="1185" 
d="M834 1278l-451 -129l-29 63l430 191zM98 512q0 242 135 393.5t377 151.5q222 0 343 -111t134 -297h-153q-19 130 -99 202.5t-219 72.5q-352 0 -352 -412q0 -215 89 -313.5t257 -98.5q150 0 234 77.5t100 213.5h156q-5 -90 -38.5 -166t-94 -134t-152 -91t-205.5 -33
q-164 0 -281 71.5t-174 193t-57 280.5z" />
    <glyph glyph-name="Cdotaccent" unicode="&#x10a;" horiz-adv-x="1548" 
d="M668 1511v170h211v-170h-211zM793 -35q-172 0 -303.5 53.5t-213 150.5t-122.5 226t-41 287q0 156 41.5 285.5t124 226.5t214.5 151t304 54q590 0 643 -545h-172q-22 201 -139 302t-336 101q-502 0 -502 -575q0 -288 122 -432t375 -144q228 0 349 113t135 324h174
q-9 -133 -51 -237t-120 -181.5t-200 -118.5t-282 -41z" />
    <glyph glyph-name="cdotaccent" unicode="&#x10b;" horiz-adv-x="1185" 
d="M487 1192v170h211v-170h-211zM98 512q0 242 135 393.5t377 151.5q222 0 343 -111t134 -297h-153q-19 130 -99 202.5t-219 72.5q-352 0 -352 -412q0 -215 89 -313.5t257 -98.5q150 0 234 77.5t100 213.5h156q-5 -90 -38.5 -166t-94 -134t-152 -91t-205.5 -33
q-164 0 -281 71.5t-174 193t-57 280.5z" />
    <glyph glyph-name="Ccaron" unicode="&#x10c;" horiz-adv-x="1548" 
d="M477 1669l80 80l215 -162l215 162l80 -80l-227 -166h-135zM793 -35q-172 0 -303.5 53.5t-213 150.5t-122.5 226t-41 287q0 156 41.5 285.5t124 226.5t214.5 151t304 54q590 0 643 -545h-172q-22 201 -139 302t-336 101q-502 0 -502 -575q0 -288 122 -432t375 -144
q228 0 349 113t135 324h174q-9 -133 -51 -237t-120 -181.5t-200 -118.5t-282 -41z" />
    <glyph glyph-name="ccaron" unicode="&#x10d;" horiz-adv-x="1185" 
d="M299 1311l80 82l215 -164l215 164l80 -82l-227 -164h-136zM98 512q0 242 135 393.5t377 151.5q222 0 343 -111t134 -297h-153q-19 130 -99 202.5t-219 72.5q-352 0 -352 -412q0 -215 89 -313.5t257 -98.5q150 0 234 77.5t100 213.5h156q-5 -90 -38.5 -166t-94 -134
t-152 -91t-205.5 -33q-164 0 -281 71.5t-174 193t-57 280.5z" />
    <glyph glyph-name="Dcaron" unicode="&#x10e;" horiz-adv-x="1441" 
d="M788 1503h-135l-227 166l80 80l215 -162l215 162l80 -80zM705 1362q162 0 286 -53t199 -147.5t112 -214.5t37 -263q0 -144 -37 -265.5t-112 -216.5t-199 -148.5t-286 -53.5h-566v1362h566zM674 137q134 0 228.5 36t151 108t82 170.5t25.5 232.5t-25 231.5t-81 168.5
t-151 106t-230 35h-365v-1088h365z" />
    <glyph glyph-name="dcaron" unicode="&#x10f;" horiz-adv-x="1484" 
d="M1266 1577h176l-21 -426h-135zM956 829v605h164v-1434h-164v197q-111 -230 -387 -230q-118 0 -208.5 41t-147 114.5t-85 172t-28.5 217.5q0 120 28.5 218.5t85 172t147 114t208.5 40.5q277 0 387 -228zM602 100q169 0 261.5 101t92.5 311t-92.5 311t-261.5 101
q-173 0 -254.5 -101.5t-81.5 -310.5q0 -208 81.5 -310t254.5 -102z" />
    <glyph glyph-name="Dcroat" unicode="&#x110;" horiz-adv-x="1611" 
d="M874 1362q163 0 287.5 -53t199 -147.5t111.5 -214.5t37 -263q0 -145 -37 -266t-111.5 -216t-199 -148.5t-287.5 -53.5h-563v606h-243v137h243v619h563zM846 137q134 0 228.5 36t150.5 108.5t81 170.5t25 232q0 271 -111.5 406t-373.5 135h-367v-482h408v-137h-408v-469
h367z" />
    <glyph glyph-name="dcroat" unicode="&#x111;" horiz-adv-x="1314" 
d="M1315 1300v-120h-195v-1180h-164v197q-111 -230 -387 -230q-118 0 -208.5 41t-147 114.5t-85 172t-28.5 217.5q0 120 28.5 218.5t85 172t147 114t208.5 40.5q277 0 387 -228v351h-370v120h370v134h164v-134h195zM602 100q169 0 261.5 101t92.5 311t-92.5 311t-261.5 101
q-173 0 -254.5 -101.5t-81.5 -310.5q0 -208 81.5 -310t254.5 -102z" />
    <glyph glyph-name="Emacron" unicode="&#x112;" horiz-adv-x="1282" 
d="M969 1688v-125h-686v125h686zM309 137h844v-137h-1014v1362h1008v-137h-838v-457h776v-135h-776v-496z" />
    <glyph glyph-name="emacron" unicode="&#x113;" horiz-adv-x="1179" 
d="M936 1362v-125h-686v125h686zM612 92q270 0 324 223h149q-6 -50 -24.5 -96.5t-55.5 -93t-89 -81t-132 -56t-178 -21.5q-129 0 -227.5 41.5t-159 116.5t-91 173t-30.5 216q0 156 55 276.5t171.5 193.5t281.5 73q226 0 353.5 -140.5t127.5 -369.5q0 -47 -4 -72h-823
q9 -202 99.5 -292.5t252.5 -90.5zM608 932q-152 0 -239.5 -79.5t-104.5 -254.5h664q-6 172 -89 253t-231 81z" />
    <glyph glyph-name="Edotaccent" unicode="&#x116;" horiz-adv-x="1282" 
d="M731 1681v-170h-211v170h211zM309 137h844v-137h-1014v1362h1008v-137h-838v-457h776v-135h-776v-496z" />
    <glyph glyph-name="edotaccent" unicode="&#x117;" horiz-adv-x="1179" 
d="M698 1362v-170h-211v170h211zM612 92q270 0 324 223h149q-6 -50 -24.5 -96.5t-55.5 -93t-89 -81t-132 -56t-178 -21.5q-129 0 -227.5 41.5t-159 116.5t-91 173t-30.5 216q0 156 55 276.5t171.5 193.5t281.5 73q226 0 353.5 -140.5t127.5 -369.5q0 -47 -4 -72h-823
q9 -202 99.5 -292.5t252.5 -90.5zM608 932q-152 0 -239.5 -79.5t-104.5 -254.5h664q-6 172 -89 253t-231 81z" />
    <glyph glyph-name="Eogonek" unicode="&#x118;" horiz-adv-x="1282" 
d="M1049 -213q54 0 106 16v-114q-54 -23 -117 -23q-114 0 -180.5 57.5t-66.5 159.5q0 62 30 117h-682v1362h1008v-137h-838v-457h776v-135h-776v-496h844v-137h-217q-23 -44 -23 -92q0 -60 38.5 -90.5t97.5 -30.5z" />
    <glyph glyph-name="eogonek" unicode="&#x119;" horiz-adv-x="1179" 
d="M846 -92q0 -60 38 -90.5t97 -30.5q54 0 106 16v-114q-54 -23 -116 -23q-114 0 -181 57.5t-67 159.5q0 45 18 97q-63 -13 -135 -13q-129 0 -227.5 41.5t-159 116.5t-91 173t-30.5 216q0 156 55 276.5t171.5 193.5t281.5 73q226 0 353.5 -140.5t127.5 -369.5q0 -47 -4 -72
h-823q9 -202 99.5 -292.5t252.5 -90.5q270 0 324 223h149q-27 -197 -200 -288q-39 -51 -39 -119zM608 932q-152 0 -239.5 -79.5t-104.5 -254.5h664q-6 172 -89 253t-231 81z" />
    <glyph glyph-name="Ecaron" unicode="&#x11a;" horiz-adv-x="1282" 
d="M692 1503h-135l-227 166l80 80l215 -162l215 162l80 -80zM309 137h844v-137h-1014v1362h1008v-137h-838v-457h776v-135h-776v-496z" />
    <glyph glyph-name="ecaron" unicode="&#x11b;" horiz-adv-x="1179" 
d="M662 1147h-136l-227 164l80 82l215 -164l215 164l80 -82zM612 92q270 0 324 223h149q-6 -50 -24.5 -96.5t-55.5 -93t-89 -81t-132 -56t-178 -21.5q-129 0 -227.5 41.5t-159 116.5t-91 173t-30.5 216q0 156 55 276.5t171.5 193.5t281.5 73q226 0 353.5 -140.5
t127.5 -369.5q0 -47 -4 -72h-823q9 -202 99.5 -292.5t252.5 -90.5zM608 932q-152 0 -239.5 -79.5t-104.5 -254.5h664q-6 172 -89 253t-231 81z" />
    <glyph glyph-name="Gbreve" unicode="&#x11e;" horiz-adv-x="1599" 
d="M547 1720h98q6 -52 42 -82t99 -30q65 0 101 30t41 82h100q-3 -39 -17.5 -74t-41.5 -67t-74.5 -51t-108.5 -19t-108 19t-73.5 51t-40.5 67t-17 74zM772 -35q-165 0 -292.5 53.5t-207 150t-119.5 226t-40 287.5q0 157 42.5 286.5t125.5 226.5t216 150.5t306 53.5
q589 0 649 -525h-176q-26 198 -140.5 290.5t-338.5 92.5q-258 0 -382 -142.5t-124 -432.5q0 -288 123 -432t383 -144q420 0 487 439h-614v127h780v-670h-154v332q-18 -62 -47 -115t-73.5 -100.5t-101.5 -81t-134 -53t-168 -19.5z" />
    <glyph glyph-name="gbreve" unicode="&#x11f;" horiz-adv-x="1261" 
d="M631 1151q-62 0 -108.5 18.5t-73.5 50.5t-41 67t-17 75h98q6 -52 42.5 -82.5t99.5 -30.5q64 0 100 30.5t41 82.5h100q-3 -39 -17.5 -74.5t-41 -67.5t-73.5 -50.5t-109 -18.5zM952 1024h164v-1026q0 -213 -118 -321.5t-388 -108.5q-226 0 -349.5 94.5t-137.5 271.5h162
q21 -237 325 -237q183 0 262.5 70t79.5 233v221q-104 -198 -381 -198q-236 0 -354.5 136.5t-118.5 379.5q0 242 119 378t354 136q271 0 381 -205v176zM610 152q169 0 255.5 92t86.5 295q0 201 -87 293t-255 92q-177 0 -260.5 -90.5t-83.5 -294.5t83.5 -295.5t260.5 -91.5z
" />
    <glyph glyph-name="Gdotaccent" unicode="&#x120;" horiz-adv-x="1599" 
d="M680 1511v170h211v-170h-211zM772 -35q-165 0 -292.5 53.5t-207 150t-119.5 226t-40 287.5q0 157 42.5 286.5t125.5 226.5t216 150.5t306 53.5q589 0 649 -525h-176q-26 198 -140.5 290.5t-338.5 92.5q-258 0 -382 -142.5t-124 -432.5q0 -288 123 -432t383 -144
q420 0 487 439h-614v127h780v-670h-154v332q-18 -62 -47 -115t-73.5 -100.5t-101.5 -81t-134 -53t-168 -19.5z" />
    <glyph glyph-name="gdotaccent" unicode="&#x121;" horiz-adv-x="1261" 
d="M735 1362v-170h-211v170h211zM952 1024h164v-1026q0 -213 -118 -321.5t-388 -108.5q-226 0 -349.5 94.5t-137.5 271.5h162q21 -237 325 -237q183 0 262.5 70t79.5 233v221q-104 -198 -381 -198q-236 0 -354.5 136.5t-118.5 379.5q0 242 119 378t354 136q271 0 381 -205
v176zM610 152q169 0 255.5 92t86.5 295q0 201 -87 293t-255 92q-177 0 -260.5 -90.5t-83.5 -294.5t83.5 -295.5t260.5 -91.5z" />
    <glyph glyph-name="uni0122" unicode="&#x122;" horiz-adv-x="1599" 
d="M772 -35q-165 0 -292.5 53.5t-207 150t-119.5 226t-40 287.5q0 157 42.5 286.5t125.5 226.5t216 150.5t306 53.5q589 0 649 -525h-176q-26 198 -140.5 290.5t-338.5 92.5q-258 0 -382 -142.5t-124 -432.5q0 -288 123 -432t383 -144q420 0 487 439h-614v127h780v-670h-154
v332q-18 -62 -47 -115t-73.5 -100.5t-101.5 -81t-134 -53t-168 -19.5zM680 -287v172h213v-299q0 -84 -39.5 -119.5t-128.5 -35.5h-45v106h104v176h-104z" />
    <glyph glyph-name="uni0123" unicode="&#x123;" horiz-adv-x="1261" 
d="M735 1331v-172h-211v299q0 84 39.5 120t128.5 36h43v-107h-104v-176h104zM952 1024h164v-1026q0 -213 -118 -321.5t-388 -108.5q-226 0 -349.5 94.5t-137.5 271.5h162q21 -237 325 -237q183 0 262.5 70t79.5 233v221q-104 -198 -381 -198q-236 0 -354.5 136.5
t-118.5 379.5q0 242 119 378t354 136q271 0 381 -205v176zM610 152q169 0 255.5 92t86.5 295q0 201 -87 293t-255 92q-177 0 -260.5 -90.5t-83.5 -294.5t83.5 -295.5t260.5 -91.5z" />
    <glyph glyph-name="Hbar" unicode="&#x126;" horiz-adv-x="1675" 
d="M1606 1153v-137h-211v-1016h-170v635h-793v-635h-168v1016h-196v137h196v209h168v-209h793v209h170v-209h211zM1225 772v244h-793v-244h793z" />
    <glyph glyph-name="hbar" unicode="&#x127;" horiz-adv-x="1247" 
d="M752 1057q189 0 276.5 -101t87.5 -303v-653h-164v635q0 156 -62.5 220.5t-182.5 64.5q-170 0 -258.5 -133.5t-88.5 -395.5v-391h-163v1180h-197v120h197v134h163v-134h371v-120h-371v-420q107 297 392 297z" />
    <glyph glyph-name="Imacron" unicode="&#x12a;" horiz-adv-x="1019" 
d="M852 1688v-125h-686v125h686zM883 1225h-289v-1088h289v-137h-746v137h289v1088h-289v137h746v-137z" />
    <glyph glyph-name="imacron" unicode="&#x12b;" horiz-adv-x="464" 
d="M-111 1362h686v-125h-686v125zM150 0v1024h163v-1024h-163z" />
    <glyph glyph-name="Iogonek" unicode="&#x12e;" horiz-adv-x="1019" 
d="M809 -213q54 0 106 16v-114q-54 -23 -116 -23q-114 0 -181 57.5t-67 159.5q0 60 31 117h-445v137h289v1088h-289v137h746v-137h-289v-1088h289v-137h-187q-22 -42 -22 -92q0 -60 38 -90.5t97 -30.5z" />
    <glyph glyph-name="iogonek" unicode="&#x12f;" horiz-adv-x="464" 
d="M338 1362v-170h-211v170h211zM340 -213q54 0 106 16v-114q-54 -23 -116 -23q-114 0 -181 57.5t-67 159.5q0 98 68 166v975h163v-1024h-86q-22 -42 -22 -92q0 -60 38 -90.5t97 -30.5z" />
    <glyph glyph-name="Idotaccent" unicode="&#x130;" horiz-adv-x="1019" 
d="M614 1681v-170h-211v170h211zM883 1225h-289v-1088h289v-137h-746v137h289v1088h-289v137h746v-137z" />
    <glyph glyph-name="dotlessi" unicode="&#x131;" horiz-adv-x="464" 
d="M150 0v1024h163v-1024h-163z" />
    <glyph glyph-name="uni0136" unicode="&#x136;" horiz-adv-x="1366" 
d="M698 784l572 -776v-8h-207l-479 664l-275 -295v-369h-170v1362h170v-774l705 774h223zM578 -287v172h213v-299q0 -84 -39.5 -119.5t-128.5 -35.5h-45v106h104v176h-104z" />
    <glyph glyph-name="uni0137" unicode="&#x137;" horiz-adv-x="1163" 
d="M627 592l491 -592h-207l-387 494l-211 -201v-293h-163v1434h163v-959q44 55 99 107l460 442h203v-4zM475 -287v172h213v-299q0 -84 -39.5 -119.5t-128.5 -35.5h-45v106h105v176h-105z" />
    <glyph glyph-name="Lacute" unicode="&#x139;" horiz-adv-x="1067" 
d="M416 1735l49 -125l-451 -129l-28 63zM309 137h713v-137h-883v1362h170v-1225z" />
    <glyph glyph-name="lacute" unicode="&#x13a;" horiz-adv-x="458" 
d="M469 1681l-451 -129l-28 64l430 190zM147 0v1434h164v-1434h-164z" />
    <glyph glyph-name="uni013B" unicode="&#x13b;" horiz-adv-x="1067" 
d="M309 137h713v-137h-883v1362h170v-1225zM446 -287v172h213v-299q0 -84 -39 -119.5t-128 -35.5h-46v106h105v176h-105z" />
    <glyph glyph-name="uni013C" unicode="&#x13c;" horiz-adv-x="458" 
d="M147 0v1434h164v-1434h-164zM123 -287v172h213v-299q0 -84 -39.5 -119.5t-128.5 -35.5h-45v106h104v176h-104z" />
    <glyph glyph-name="Lcaron" unicode="&#x13d;" horiz-adv-x="1067" 
d="M700 1151h-133l-20 426h174zM309 137h713v-137h-883v1362h170v-1225z" />
    <glyph glyph-name="lcaron" unicode="&#x13e;" horiz-adv-x="675" 
d="M459 1577h176l-21 -426h-135zM147 0v1434h164v-1434h-164z" />
    <glyph glyph-name="Lslash" unicode="&#x141;" horiz-adv-x="1228" 
d="M471 137h713v-137h-881v553l-235 -90v139l235 92v668h168v-604l416 162v-142l-416 -160v-481z" />
    <glyph glyph-name="lslash" unicode="&#x142;" horiz-adv-x="804" 
d="M737 899v-141l-252 -103v-655h-163v588l-254 -105v140l254 104v707h163v-639z" />
    <glyph glyph-name="Nacute" unicode="&#x143;" horiz-adv-x="1439" 
d="M958 1610l-450 -129l-29 63l430 191zM1130 1362h168v-1362h-284l-619 1069q-48 91 -86 178v-1247h-170v1362h287l618 -1071q35 -61 86 -176v1247z" />
    <glyph glyph-name="nacute" unicode="&#x144;" horiz-adv-x="1200" 
d="M840 1278l-451 -129l-29 63l431 191zM707 1057q189 0 276.5 -101t87.5 -303v-653h-164v635q0 156 -62.5 220.5t-182.5 64.5q-171 0 -260 -133t-89 -396v-391h-163v1024h163v-268q49 144 147.5 222.5t246.5 78.5z" />
    <glyph glyph-name="uni0145" unicode="&#x145;" horiz-adv-x="1439" 
d="M1130 1362h168v-1362h-284l-619 1069q-48 91 -86 178v-1247h-170v1362h287l618 -1071q35 -61 86 -176v1247zM614 -287v172h213v-299q0 -84 -39.5 -119.5t-128.5 -35.5h-45v106h105v176h-105z" />
    <glyph glyph-name="uni0146" unicode="&#x146;" horiz-adv-x="1200" 
d="M707 1057q189 0 276.5 -101t87.5 -303v-653h-164v635q0 156 -62.5 220.5t-182.5 64.5q-171 0 -260 -133t-89 -396v-391h-163v1024h163v-268q49 144 147.5 222.5t246.5 78.5zM496 -287v172h213v-299q0 -84 -39.5 -119.5t-128.5 -35.5h-45v106h104v176h-104z" />
    <glyph glyph-name="Ncaron" unicode="&#x147;" horiz-adv-x="1439" 
d="M788 1503h-135l-227 166l80 80l215 -162l215 162l80 -80zM1130 1362h168v-1362h-284l-619 1069q-48 91 -86 178v-1247h-170v1362h287l618 -1071q35 -61 86 -176v1247z" />
    <glyph glyph-name="ncaron" unicode="&#x148;" horiz-adv-x="1200" 
d="M670 1147h-135l-228 164l80 82l215 -164l215 164l80 -82zM707 1057q189 0 276.5 -101t87.5 -303v-653h-164v635q0 156 -62.5 220.5t-182.5 64.5q-171 0 -260 -133t-89 -396v-391h-163v1024h163v-268q49 144 147.5 222.5t246.5 78.5z" />
    <glyph glyph-name="Eng" unicode="&#x14a;" horiz-adv-x="1439" 
d="M1130 1362h168v-1532q0 -129 -52 -184.5t-193 -55.5h-242v134h319v276h-116l-619 1069q-48 91 -86 178v-1247h-170v1362h287l618 -1071q35 -61 86 -176v1247z" />
    <glyph glyph-name="eng" unicode="&#x14b;" horiz-adv-x="1200" 
d="M698 1057q192 0 282.5 -100.5t90.5 -303.5v-823q0 -129 -52.5 -184.5t-195.5 -55.5h-239v134h323v911q0 158 -65 221.5t-191 63.5q-166 0 -252 -133t-86 -396v-391h-163v1024h163v-262q99 295 385 295z" />
    <glyph glyph-name="Omacron" unicode="&#x14c;" horiz-adv-x="1583" 
d="M449 1688h686v-125h-686v125zM791 -35q-173 0 -304.5 53.5t-212.5 151t-121 226t-40 286.5q0 156 40 284t120.5 226t212.5 152.5t305 54.5t305 -55t212.5 -153t121 -226.5t40.5 -282.5q0 -157 -40.5 -285.5t-121 -226t-212.5 -151.5t-305 -54zM291 682q0 -291 121 -433.5
t379 -142.5t379.5 142.5t121.5 433.5q0 290 -121.5 432.5t-379.5 142.5t-379 -142t-121 -433z" />
    <glyph glyph-name="omacron" unicode="&#x14d;" horiz-adv-x="1226" 
d="M270 1362h686v-125h-686v125zM614 -33q-127 0 -226.5 42t-162 116t-95 173t-32.5 216q0 92 20 173.5t62 149.5t102.5 117t145 76t186.5 27q126 0 225 -42t161.5 -116t95 -172t32.5 -213q0 -117 -32.5 -215.5t-95 -173t-161.5 -116.5t-225 -42zM264 512q0 -212 87 -312
t263 -100t262.5 99.5t86.5 312.5q0 214 -86.5 313t-262.5 99t-263 -99t-87 -313z" />
    <glyph glyph-name="Ohungarumlaut" unicode="&#x150;" horiz-adv-x="1583" 
d="M829 1681l-299 -184l-43 47l254 238zM1200 1681l-297 -184l-45 47l254 238zM791 -35q-173 0 -304.5 53.5t-212.5 151t-121 226t-40 286.5q0 156 40 284t120.5 226t212.5 152.5t305 54.5t305 -55t212.5 -153t121 -226.5t40.5 -282.5q0 -157 -40.5 -285.5t-121 -226
t-212.5 -151.5t-305 -54zM291 682q0 -291 121 -433.5t379 -142.5t379.5 142.5t121.5 433.5q0 290 -121.5 432.5t-379.5 142.5t-379 -142t-121 -433z" />
    <glyph glyph-name="ohungarumlaut" unicode="&#x151;" horiz-adv-x="1226" 
d="M633 1337l-299 -184l-43 47l252 238zM1004 1337l-299 -184l-43 47l253 238zM614 -33q-127 0 -226.5 42t-162 116t-95 173t-32.5 216q0 92 20 173.5t62 149.5t102.5 117t145 76t186.5 27q126 0 225 -42t161.5 -116t95 -172t32.5 -213q0 -117 -32.5 -215.5t-95 -173
t-161.5 -116.5t-225 -42zM264 512q0 -212 87 -312t263 -100t262.5 99.5t86.5 312.5q0 214 -86.5 313t-262.5 99t-263 -99t-87 -313z" />
    <glyph glyph-name="OE" unicode="&#x152;" horiz-adv-x="2439" 
d="M1468 137h844v-137h-1014v227q-146 -262 -520 -262q-169 0 -298 53.5t-208 151t-119 226.5t-40 286q0 155 40 283.5t119 226.5t208.5 152.5t297.5 54.5q373 0 520 -264v227h1008v-137h-838v-457h777v-135h-777v-496zM791 106q258 0 379.5 142.5t121.5 433.5
q0 290 -121.5 432.5t-379.5 142.5t-379 -142t-121 -433t121 -433.5t379 -142.5z" />
    <glyph glyph-name="oe" unicode="&#x153;" horiz-adv-x="2027" 
d="M1460 92q274 0 324 223h151q-7 -50 -25.5 -96.5t-56 -93.5t-89 -81t-131.5 -55.5t-177 -21.5q-306 0 -424 234q-118 -234 -418 -234q-127 0 -226.5 42t-162 116t-95 173t-32.5 216q0 92 20 173.5t62 149.5t102.5 117t145 76t186.5 27q301 0 420 -236q119 236 422 236
q226 0 352.5 -140.5t126.5 -369.5q0 -47 -4 -72h-823q16 -383 352 -383zM1456 932q-152 0 -239.5 -79.5t-104.5 -254.5h664q-11 334 -320 334zM614 100q176 0 262.5 99.5t86.5 312.5q0 214 -86.5 313t-262.5 99t-263 -99t-87 -313q0 -212 87 -312t263 -100z" />
    <glyph glyph-name="Racute" unicode="&#x154;" horiz-adv-x="1325" 
d="M897 1610l-451 -129l-28 63l430 191zM1149 360v-143q0 -102 27 -217h-166q-25 80 -25 211v125q0 143 -74 208.5t-219 65.5h-383v-610h-170v1362h635q206 0 312 -95t106 -263q0 -133 -73.5 -225.5t-190.5 -119.5q53 -15 89.5 -34.5t68.5 -53t47.5 -86t15.5 -125.5z
M754 737q137 0 198.5 64.5t61.5 187.5q0 119 -62.5 177.5t-195.5 58.5h-447v-488h445z" />
    <glyph glyph-name="racute" unicode="&#x155;" horiz-adv-x="788" 
d="M633 1278l-451 -129l-28 63l430 191zM688 1038h37v-161h-43q-89 3 -154.5 -21t-106.5 -66.5t-65.5 -109t-33.5 -138.5t-9 -165v-377h-163v1024h163v-270q102 284 375 284z" />
    <glyph glyph-name="uni0156" unicode="&#x156;" horiz-adv-x="1325" 
d="M1149 360v-143q0 -102 27 -217h-166q-25 80 -25 211v125q0 143 -74 208.5t-219 65.5h-383v-610h-170v1362h635q206 0 312 -95t106 -263q0 -133 -73.5 -225.5t-190.5 -119.5q53 -15 89.5 -34.5t68.5 -53t47.5 -86t15.5 -125.5zM754 737q137 0 198.5 64.5t61.5 187.5
q0 119 -62.5 177.5t-195.5 58.5h-447v-488h445zM553 -287v172h213v-299q0 -84 -39.5 -119.5t-128.5 -35.5h-45v106h104v176h-104z" />
    <glyph glyph-name="uni0157" unicode="&#x157;" horiz-adv-x="788" 
d="M688 1038h37v-161h-43q-89 3 -154.5 -21t-106.5 -66.5t-65.5 -109t-33.5 -138.5t-9 -165v-377h-163v1024h163v-270q102 284 375 284zM125 -287v172h213v-299q0 -84 -39.5 -119.5t-128.5 -35.5h-45v106h104v176h-104z" />
    <glyph glyph-name="Rcaron" unicode="&#x158;" horiz-adv-x="1325" 
d="M727 1503h-135l-227 166l79 80l215 -162l215 162l80 -80zM1149 360v-143q0 -102 27 -217h-166q-25 80 -25 211v125q0 143 -74 208.5t-219 65.5h-383v-610h-170v1362h635q206 0 312 -95t106 -263q0 -133 -73.5 -225.5t-190.5 -119.5q53 -15 89.5 -34.5t68.5 -53t47.5 -86
t15.5 -125.5zM754 737q137 0 198.5 64.5t61.5 187.5q0 119 -62.5 177.5t-195.5 58.5h-447v-488h445z" />
    <glyph glyph-name="rcaron" unicode="&#x159;" horiz-adv-x="788" 
d="M461 1147h-135l-228 164l80 82l215 -164l215 164l80 -82zM688 1038h37v-161h-43q-89 3 -154.5 -21t-106.5 -66.5t-65.5 -109t-33.5 -138.5t-9 -165v-377h-163v1024h163v-270q102 284 375 284z" />
    <glyph glyph-name="Sacute" unicode="&#x15a;" horiz-adv-x="1347" 
d="M913 1610l-450 -129l-29 63l430 191zM106 467h166q7 -365 428 -365q201 0 284 64t83 190q0 107 -59 164.5t-189 79.5l-321 49q-177 26 -261.5 114t-84.5 243q0 173 132.5 283t385.5 110q258 0 397.5 -119.5t153.5 -323.5h-164q-14 145 -109.5 227.5t-279.5 82.5
q-175 0 -259.5 -68.5t-84.5 -187.5q0 -182 204 -215l340 -52q186 -30 278.5 -117t92.5 -247q0 -410 -539 -410q-129 0 -231 26.5t-169.5 71.5t-111.5 109t-63 136t-19 155z" />
    <glyph glyph-name="sacute" unicode="&#x15b;" horiz-adv-x="1056" 
d="M758 1278l-451 -129l-28 63l430 191zM78 342h151q22 -250 326 -250q132 0 192 44.5t60 133.5q0 74 -45 115.5t-141 54.5l-238 35q-135 19 -207 89.5t-72 187.5q0 143 108.5 225t301.5 82q197 0 311 -90t123 -238h-162q-8 88 -76 145.5t-200 57.5q-125 0 -185.5 -45.5
t-60.5 -124.5q0 -129 166 -152l217 -30q173 -26 247.5 -99.5t74.5 -203.5q0 -156 -106 -234t-312 -78q-122 0 -213.5 28t-147 79.5t-83 118t-29.5 149.5z" />
    <glyph glyph-name="Scedilla" unicode="&#x15e;" horiz-adv-x="1347" 
d="M1239 379q0 -385 -469 -408l41 -155q19 -74 -12.5 -112t-96.5 -38h-174v115h162l-49 190q-116 5 -208 34t-152.5 74.5t-100.5 108t-57 131.5t-17 148h166q7 -365 428 -365q201 0 284 64t83 190q0 107 -59 164.5t-189 79.5l-321 49q-177 26 -261.5 114t-84.5 243
q0 173 132.5 283t385.5 110q258 0 397.5 -119.5t153.5 -323.5h-164q-14 145 -109.5 227.5t-279.5 82.5q-175 0 -259.5 -68.5t-84.5 -187.5q0 -182 204 -215l340 -52q186 -30 278.5 -117t92.5 -247z" />
    <glyph glyph-name="scedilla" unicode="&#x15f;" horiz-adv-x="1056" 
d="M969 279q0 -144 -90.5 -221.5t-264.5 -88.5l41 -153q19 -74 -12 -112t-96 -38h-174v115h162l-50 188q-105 7 -183.5 38t-126.5 81t-71.5 113.5t-25.5 140.5h151q22 -250 326 -250q132 0 192 44.5t60 133.5q0 74 -45 115.5t-141 54.5l-238 35q-135 19 -207 89.5t-72 187.5
q0 143 108.5 225t301.5 82q197 0 311 -90t123 -238h-162q-8 88 -76 145.5t-200 57.5q-125 0 -185.5 -45.5t-60.5 -124.5q0 -129 166 -152l217 -30q173 -26 247.5 -99.5t74.5 -203.5z" />
    <glyph glyph-name="Scaron" unicode="&#x160;" horiz-adv-x="1347" 
d="M379 1669l80 80l215 -162l215 162l80 -80l-228 -166h-135zM106 467h166q7 -365 428 -365q201 0 284 64t83 190q0 107 -59 164.5t-189 79.5l-321 49q-177 26 -261.5 114t-84.5 243q0 173 132.5 283t385.5 110q258 0 397.5 -119.5t153.5 -323.5h-164q-14 145 -109.5 227.5
t-279.5 82.5q-175 0 -259.5 -68.5t-84.5 -187.5q0 -182 204 -215l340 -52q186 -30 278.5 -117t92.5 -247q0 -410 -539 -410q-129 0 -231 26.5t-169.5 71.5t-111.5 109t-63 136t-19 155z" />
    <glyph glyph-name="scaron" unicode="&#x161;" horiz-adv-x="1056" 
d="M223 1311l80 82l215 -164l215 164l80 -82l-227 -164h-135zM78 342h151q22 -250 326 -250q132 0 192 44.5t60 133.5q0 74 -45 115.5t-141 54.5l-238 35q-135 19 -207 89.5t-72 187.5q0 143 108.5 225t301.5 82q197 0 311 -90t123 -238h-162q-8 88 -76 145.5t-200 57.5
q-125 0 -185.5 -45.5t-60.5 -124.5q0 -129 166 -152l217 -30q173 -26 247.5 -99.5t74.5 -203.5q0 -156 -106 -234t-312 -78q-122 0 -213.5 28t-147 79.5t-83 118t-29.5 149.5z" />
    <glyph glyph-name="uni0162" unicode="&#x162;" horiz-adv-x="1284" 
d="M727 1225v-1227h-18l47 -176q19 -74 -12.5 -112t-96.5 -38h-174v115h162l-55 211h-21v1227h-491v137h1146v-137h-487z" />
    <glyph glyph-name="uni0163" unicode="&#x163;" horiz-adv-x="800" 
d="M737 895h-338v-762h326v-133h-178l49 -184q19 -74 -12.5 -112t-96.5 -38h-174v115h162l-57 223q-103 12 -142.5 67.5t-39.5 168.5v655h-195v92l209 51l61 213h88v-227h338v-129z" />
    <glyph glyph-name="Tcaron" unicode="&#x164;" horiz-adv-x="1284" 
d="M709 1503h-136l-227 166l80 80l215 -162l215 162l80 -80zM1214 1362v-137h-487v-1227h-168v1227h-491v137h1146z" />
    <glyph glyph-name="tcaron" unicode="&#x165;" horiz-adv-x="804" 
d="M557 1577h176l-20 -426h-135zM483 0q-142 0 -194.5 55.5t-52.5 184.5v655h-195v92l209 51l61 213h88v-227h338v-129h-338v-762h326v-133h-242z" />
    <glyph glyph-name="Tbar" unicode="&#x166;" horiz-adv-x="1290" 
d="M1223 760v-139h-496v-623h-168v623h-483v139h483v465h-491v137h1146v-137h-487v-465h496z" />
    <glyph glyph-name="tbar" unicode="&#x167;" horiz-adv-x="800" 
d="M737 895h-338v-180h338v-129h-338v-453h326v-133h-242q-142 0 -194.5 55.5t-52.5 184.5v346h-195v129h195v180h-195v92l209 51l61 213h88v-227h338v-129z" />
    <glyph glyph-name="Umacron" unicode="&#x16a;" horiz-adv-x="1378" 
d="M346 1688h686v-125h-686v125zM137 487v875h168v-854q0 -115 24 -193t74 -123t119 -64t168 -19t167.5 19t118.5 64t73.5 123t23.5 193v854h170v-875q0 -254 -137 -387t-416 -133q-553 0 -553 520z" />
    <glyph glyph-name="umacron" unicode="&#x16b;" horiz-adv-x="1198" 
d="M934 1362v-125h-686v125h686zM885 1024h164v-1024h-164v260q-98 -293 -381 -293q-192 0 -283.5 100.5t-91.5 303.5v653h164v-635q0 -161 65 -224t193 -63q160 0 247 138t87 393v391z" />
    <glyph glyph-name="Uring" unicode="&#x16e;" horiz-adv-x="1378" 
d="M690 1458q-71 0 -113 45t-42 109q0 63 42 107t113 44t113.5 -44t42.5 -107q0 -64 -42.5 -109t-113.5 -45zM618 1612q0 -33 21 -54.5t51 -21.5t51 21.5t21 54.5q0 34 -21 54t-51 20t-51 -20t-21 -54zM137 487v875h168v-854q0 -115 24 -193t74 -123t119 -64t168 -19
t167.5 19t118.5 64t73.5 123t23.5 193v854h170v-875q0 -254 -137 -387t-416 -133q-553 0 -553 520z" />
    <glyph glyph-name="uring" unicode="&#x16f;" horiz-adv-x="1198" 
d="M590 1143q-64 0 -101.5 39.5t-37.5 97.5q0 56 37.5 95.5t101.5 39.5t101.5 -39.5t37.5 -95.5q0 -58 -37.5 -97.5t-101.5 -39.5zM590 1348q-27 0 -46.5 -19t-19.5 -49t19.5 -50t46.5 -20t46 20t19 50t-19 49t-46 19zM885 1024h164v-1024h-164v260q-98 -293 -381 -293
q-192 0 -283.5 100.5t-91.5 303.5v653h164v-635q0 -161 65 -224t193 -63q160 0 247 138t87 393v391z" />
    <glyph glyph-name="Uhungarumlaut" unicode="&#x170;" horiz-adv-x="1378" 
d="M729 1681l-299 -184l-43 47l254 238zM1100 1681l-297 -184l-45 47l254 238zM137 487v875h168v-854q0 -115 24 -193t74 -123t119 -64t168 -19t167.5 19t118.5 64t73.5 123t23.5 193v854h170v-875q0 -254 -137 -387t-416 -133q-553 0 -553 520z" />
    <glyph glyph-name="uhungarumlaut" unicode="&#x171;" horiz-adv-x="1198" 
d="M610 1337l-299 -184l-43 47l252 238zM981 1337l-299 -184l-43 47l254 238zM885 1024h164v-1024h-164v260q-98 -293 -381 -293q-192 0 -283.5 100.5t-91.5 303.5v653h164v-635q0 -161 65 -224t193 -63q160 0 247 138t87 393v391z" />
    <glyph glyph-name="Uogonek" unicode="&#x172;" horiz-adv-x="1378" 
d="M1243 487q0 -304 -194 -434q-64 -64 -64 -145q0 -60 38 -90.5t97 -30.5q55 0 107 16v-114q-54 -23 -117 -23q-114 0 -181 57.5t-67 159.5q0 57 23 105q-85 -21 -195 -21q-553 0 -553 520v875h168v-854q0 -115 24 -193t74 -123t119 -64t168 -19t167.5 19t118.5 64
t73.5 123t23.5 193v854h170v-875z" />
    <glyph glyph-name="uogonek" unicode="&#x173;" horiz-adv-x="1198" 
d="M1073 -213q55 0 107 16v-114q-54 -23 -117 -23q-114 0 -181 57.5t-67 159.5q0 98 70 168v209q-98 -293 -381 -293q-192 0 -283.5 100.5t-91.5 303.5v653h164v-635q0 -161 65 -224t193 -63q160 0 247 138t87 393v391h164v-1024h-88q-23 -44 -23 -92q0 -60 38 -90.5
t97 -30.5z" />
    <glyph glyph-name="Wcircumflex" unicode="&#x174;" horiz-adv-x="2045" 
d="M1024 1661l-215 -164l-80 82l227 164h136l227 -164l-80 -82zM1776 1362h170l-312 -1362h-286l-324 1233l-326 -1233h-286l-312 1362h172l287 -1253l332 1253h266l332 -1253z" />
    <glyph glyph-name="wcircumflex" unicode="&#x175;" horiz-adv-x="1796" 
d="M897 1278l-215 -162l-80 80l227 166h136l227 -166l-80 -80zM1577 1024h160l-312 -1024h-233l-295 829l-293 -829h-233l-314 1024h172l265 -901l323 901h170l324 -901z" />
    <glyph glyph-name="Ycircumflex" unicode="&#x176;" horiz-adv-x="1308" 
d="M655 1661l-215 -164l-80 82l228 164h135l227 -164l-80 -82zM1061 1362h190l-512 -885v-477h-170v477l-512 885h195l309 -563q66 -126 94 -174q6 11 41.5 75t53.5 99z" />
    <glyph glyph-name="ycircumflex" unicode="&#x177;" horiz-adv-x="1138" 
d="M569 1278l-215 -162l-80 80l228 166h135l227 -166l-80 -80zM926 1024h161l-481 -1194q-27 -71 -46.5 -108.5t-52 -71.5t-77.5 -47t-113 -13h-194v134h285l112 276h-57l-406 1024h172l314 -788l35 -99l30 99z" />
    <glyph glyph-name="Ydieresis" unicode="&#x178;" horiz-adv-x="1308" 
d="M578 1681v-170h-197v170h197zM928 1681v-170h-199v170h199zM1061 1362h190l-512 -885v-477h-170v477l-512 885h195l309 -563q66 -126 94 -174q6 11 41.5 75t53.5 99z" />
    <glyph glyph-name="Zacute" unicode="&#x179;" horiz-adv-x="1398" 
d="M940 1610l-451 -129l-28 63l430 191zM342 137h934v-137h-1143v137l930 1088h-918v137h1125v-137z" />
    <glyph glyph-name="zacute" unicode="&#x17a;" horiz-adv-x="1116" 
d="M803 1278l-451 -129l-28 63l430 191zM315 125h703v-125h-901v125l696 774h-696v125h891v-125z" />
    <glyph glyph-name="Zdotaccent" unicode="&#x17b;" horiz-adv-x="1398" 
d="M805 1681v-170h-211v170h211zM342 137h934v-137h-1143v137l930 1088h-918v137h1125v-137z" />
    <glyph glyph-name="zdotaccent" unicode="&#x17c;" horiz-adv-x="1116" 
d="M668 1362v-170h-211v170h211zM315 125h703v-125h-901v125l696 774h-696v125h891v-125z" />
    <glyph glyph-name="Zcaron" unicode="&#x17d;" horiz-adv-x="1398" 
d="M768 1503h-135l-227 166l79 80l215 -162l215 162l80 -80zM342 137h934v-137h-1143v137l930 1088h-918v137h1125v-137z" />
    <glyph glyph-name="zcaron" unicode="&#x17e;" horiz-adv-x="1116" 
d="M631 1147h-135l-228 164l80 82l215 -164l215 164l80 -82zM315 125h703v-125h-901v125l696 774h-696v125h891v-125z" />
    <glyph glyph-name="florin" unicode="&#x192;" horiz-adv-x="1021" 
d="M858 1300h-264v-557h227v-127h-227v-786q0 -126 -59 -183t-203 -57h-168v134h266v892h-227v127h227v451q0 127 58 183.5t202 56.5h168v-134z" />
    <glyph glyph-name="uni01CD" unicode="&#x1cd;" horiz-adv-x="1431" 
d="M786 1503h-135l-227 166l80 80l215 -162l215 162l80 -80zM1188 0l-133 348h-676l-133 -348h-170l516 1362h252l516 -1362h-172zM430 485h574l-287 754z" />
    <glyph glyph-name="uni01CE" unicode="&#x1ce;" horiz-adv-x="1122" 
d="M276 1311l80 82l215 -164l215 164l80 -82l-227 -164h-135zM457 -27q-152 0 -245 77.5t-93 219.5q0 128 74.5 204.5t236.5 103.5l260 43q84 14 119 40.5t35 83.5q0 87 -56.5 136t-195.5 49q-270 0 -287 -228h-162q5 166 119.5 261.5t323.5 95.5q203 0 305 -85t102 -229
v-491q0 -124 13 -254h-150q-14 154 -14 240q-16 -50 -44 -94t-73 -85t-114 -64.5t-154 -23.5zM489 102q88 0 157 32t111.5 86.5t64.5 122t22 142.5v88q-60 -43 -185 -69l-170 -35q-107 -22 -155.5 -66.5t-48.5 -126.5q0 -85 55 -129.5t149 -44.5z" />
    <glyph glyph-name="uni01CF" unicode="&#x1cf;" horiz-adv-x="1019" 
d="M578 1503h-136l-227 166l80 80l215 -162l215 162l80 -80zM883 1225h-289v-1088h289v-137h-746v137h289v1088h-289v137h746v-137z" />
    <glyph glyph-name="uni01D0" unicode="&#x1d0;" horiz-adv-x="464" 
d="M-63 1311l79 82l215 -164l215 164l80 -82l-227 -164h-135zM150 0v1024h163v-1024h-163z" />
    <glyph glyph-name="uni01D1" unicode="&#x1d1;" horiz-adv-x="1583" 
d="M496 1669l79 80l216 -162l215 162l79 -80l-227 -166h-135zM791 -35q-173 0 -304.5 53.5t-212.5 151t-121 226t-40 286.5q0 156 40 284t120.5 226t212.5 152.5t305 54.5t305 -55t212.5 -153t121 -226.5t40.5 -282.5q0 -157 -40.5 -285.5t-121 -226t-212.5 -151.5t-305 -54
zM291 682q0 -291 121 -433.5t379 -142.5t379.5 142.5t121.5 433.5q0 290 -121.5 432.5t-379.5 142.5t-379 -142t-121 -433z" />
    <glyph glyph-name="uni01D2" unicode="&#x1d2;" horiz-adv-x="1226" 
d="M319 1311l80 82l215 -164l215 164l80 -82l-227 -164h-135zM614 -33q-127 0 -226.5 42t-162 116t-95 173t-32.5 216q0 92 20 173.5t62 149.5t102.5 117t145 76t186.5 27q126 0 225 -42t161.5 -116t95 -172t32.5 -213q0 -117 -32.5 -215.5t-95 -173t-161.5 -116.5t-225 -42
zM264 512q0 -212 87 -312t263 -100t262.5 99.5t86.5 312.5q0 214 -86.5 313t-262.5 99t-263 -99t-87 -313z" />
    <glyph glyph-name="uni01D3" unicode="&#x1d3;" horiz-adv-x="1378" 
d="M395 1669l80 80l215 -162l215 162l80 -80l-227 -166h-135zM137 487v875h168v-854q0 -115 24 -193t74 -123t119 -64t168 -19t167.5 19t118.5 64t73.5 123t23.5 193v854h170v-875q0 -254 -137 -387t-416 -133q-553 0 -553 520z" />
    <glyph glyph-name="uni01D4" unicode="&#x1d4;" horiz-adv-x="1198" 
d="M657 1147h-135l-227 164l80 82l215 -164l215 164l80 -82zM885 1024h164v-1024h-164v260q-98 -293 -381 -293q-192 0 -283.5 100.5t-91.5 303.5v653h164v-635q0 -161 65 -224t193 -63q160 0 247 138t87 393v391z" />
    <glyph glyph-name="uni01D5" unicode="&#x1d5;" horiz-adv-x="1378" 
d="M346 1997h686v-125h-686v125zM416 1511v170h196v-170h-196zM764 1511v170h199v-170h-199zM137 487v875h168v-854q0 -115 24 -193t74 -123t119 -64t168 -19t167.5 19t118.5 64t73.5 123t23.5 193v854h170v-875q0 -254 -137 -387t-416 -133q-553 0 -553 520z" />
    <glyph glyph-name="uni01D6" unicode="&#x1d6;" horiz-adv-x="1198" 
d="M934 1700v-125h-686v125h686zM500 1192h-199v170h199v-170zM877 1192h-199v170h199v-170zM885 1024h164v-1024h-164v260q-98 -293 -381 -293q-192 0 -283.5 100.5t-91.5 303.5v653h164v-635q0 -161 65 -224t193 -63q160 0 247 138t87 393v391z" />
    <glyph glyph-name="uni01D7" unicode="&#x1d7;" horiz-adv-x="1378" 
d="M928 1919l-451 -129l-28 63l430 191zM416 1511v170h196v-170h-196zM764 1511v170h199v-170h-199zM137 487v875h168v-854q0 -115 24 -193t74 -123t119 -64t168 -19t167.5 19t118.5 64t73.5 123t23.5 193v854h170v-875q0 -254 -137 -387t-416 -133q-553 0 -553 520z" />
    <glyph glyph-name="uni01D8" unicode="&#x1d8;" horiz-adv-x="1198" 
d="M829 1616l-450 -129l-29 63l430 191zM500 1362v-170h-199v170h199zM678 1192v170h199v-170h-199zM885 1024h164v-1024h-164v260q-98 -293 -381 -293q-192 0 -283.5 100.5t-91.5 303.5v653h164v-635q0 -161 65 -224t193 -63q160 0 247 138t87 393v391z" />
    <glyph glyph-name="uni01D9" unicode="&#x1d9;" horiz-adv-x="1378" 
d="M395 1978l80 80l215 -162l215 162l80 -80l-227 -166h-135zM416 1511v170h196v-170h-196zM764 1511v170h199v-170h-199zM137 487v875h168v-854q0 -115 24 -193t74 -123t119 -64t168 -19t167.5 19t118.5 64t73.5 123t23.5 193v854h170v-875q0 -254 -137 -387t-416 -133
q-553 0 -553 520z" />
    <glyph glyph-name="uni01DA" unicode="&#x1da;" horiz-adv-x="1198" 
d="M657 1485h-135l-227 164l80 82l215 -164l215 164l80 -82zM500 1192h-199v170h199v-170zM877 1192h-199v170h199v-170zM885 1024h164v-1024h-164v260q-98 -293 -381 -293q-192 0 -283.5 100.5t-91.5 303.5v653h164v-635q0 -161 65 -224t193 -63q160 0 247 138t87 393v391z
" />
    <glyph glyph-name="uni01DB" unicode="&#x1db;" horiz-adv-x="1378" 
d="M451 1919l49 125l430 -191l-29 -63zM416 1511v170h196v-170h-196zM764 1511v170h199v-170h-199zM137 487v875h168v-854q0 -115 24 -193t74 -123t119 -64t168 -19t167.5 19t118.5 64t73.5 123t23.5 193v854h170v-875q0 -254 -137 -387t-416 -133q-553 0 -553 520z" />
    <glyph glyph-name="uni01DC" unicode="&#x1dc;" horiz-adv-x="1198" 
d="M836 1550l-27 -63l-453 129l50 125zM500 1362v-170h-199v170h199zM678 1192v170h199v-170h-199zM885 1024h164v-1024h-164v260q-98 -293 -381 -293q-192 0 -283.5 100.5t-91.5 303.5v653h164v-635q0 -161 65 -224t193 -63q160 0 247 138t87 393v391z" />
    <glyph glyph-name="uni0218" unicode="&#x218;" horiz-adv-x="1347" 
d="M106 467h166q7 -365 428 -365q201 0 284 64t83 190q0 107 -59 164.5t-189 79.5l-321 49q-177 26 -261.5 114t-84.5 243q0 173 132.5 283t385.5 110q258 0 397.5 -119.5t153.5 -323.5h-164q-14 145 -109.5 227.5t-279.5 82.5q-175 0 -259.5 -68.5t-84.5 -187.5
q0 -182 204 -215l340 -52q186 -30 278.5 -117t92.5 -247q0 -410 -539 -410q-129 0 -231 26.5t-169.5 71.5t-111.5 109t-63 136t-19 155zM567 -287v172h213v-299q0 -84 -39.5 -119.5t-128.5 -35.5h-45v106h105v176h-105z" />
    <glyph glyph-name="uni0219" unicode="&#x219;" horiz-adv-x="1056" 
d="M78 342h151q22 -250 326 -250q132 0 192 44.5t60 133.5q0 74 -45 115.5t-141 54.5l-238 35q-135 19 -207 89.5t-72 187.5q0 143 108.5 225t301.5 82q197 0 311 -90t123 -238h-162q-8 88 -76 145.5t-200 57.5q-125 0 -185.5 -45.5t-60.5 -124.5q0 -129 166 -152l217 -30
q173 -26 247.5 -99.5t74.5 -203.5q0 -156 -106 -234t-312 -78q-122 0 -213.5 28t-147 79.5t-83 118t-29.5 149.5zM412 -287v172h213v-299q0 -84 -39.5 -119.5t-128.5 -35.5h-45v106h104v176h-104z" />
    <glyph glyph-name="uni021A" unicode="&#x21a;" horiz-adv-x="1284" 
d="M1214 1362v-137h-487v-1227h-168v1227h-491v137h1146zM512 -281v172h213v-299q0 -84 -39.5 -119.5t-128.5 -35.5h-45v106h104v176h-104z" />
    <glyph glyph-name="uni021B" unicode="&#x21b;" horiz-adv-x="800" 
d="M483 0q-142 0 -194.5 55.5t-52.5 184.5v655h-195v92l209 51l61 213h88v-227h338v-129h-338v-762h326v-133h-242zM350 -287v172h213v-299q0 -84 -39.5 -119.5t-128.5 -35.5h-45v106h105v176h-105z" />
    <glyph glyph-name="uni0237" unicode="&#x237;" horiz-adv-x="440" 
d="M-123 -410v134h266v1300h164v-1194q0 -126 -59 -183t-203 -57h-168z" />
    <glyph glyph-name="circumflex" unicode="&#x2c6;" horiz-adv-x="1228" 
d="M61 1196l228 166h135l227 -166l-80 -80l-215 162l-215 -162z" />
    <glyph glyph-name="caron" unicode="&#x2c7;" horiz-adv-x="1228" 
d="M174 1311l80 82l215 -164l215 164l80 -82l-227 -164h-136z" />
    <glyph glyph-name="breve" unicode="&#x2d8;" horiz-adv-x="1228" 
d="M174 1362h98q6 -52 42.5 -82.5t99.5 -30.5q64 0 100 30.5t41 82.5h100q-3 -39 -17.5 -74.5t-41 -67.5t-73.5 -50.5t-109 -18.5t-108.5 18.5t-73.5 50.5t-41 67t-17 75z" />
    <glyph glyph-name="dotaccent" unicode="&#x2d9;" horiz-adv-x="1228" 
d="M125 1192v170h211v-170h-211z" />
    <glyph glyph-name="ring" unicode="&#x2da;" horiz-adv-x="626" 
d="M313 1143q-64 0 -101.5 39.5t-37.5 97.5q0 56 37.5 95.5t101.5 39.5t102 -39.5t38 -95.5q0 -58 -38 -97.5t-102 -39.5zM248 1280q0 -30 19 -50t46 -20t46.5 20t19.5 50t-19.5 49t-46.5 19t-46 -19t-19 -49z" />
    <glyph glyph-name="ogonek" unicode="&#x2db;" horiz-adv-x="1228" 
d="M408 -334q-114 0 -181 57.5t-67 159.5q0 47 15.5 87t43 69.5t53.5 48.5t60 37l33 -51q-42 -40 -62 -77.5t-20 -88.5q0 -60 38 -90.5t97 -30.5q54 0 106 16v-114q-54 -23 -116 -23z" />
    <glyph glyph-name="tilde" unicode="&#x2dc;" horiz-adv-x="1228" 
d="M643 1180q-41 0 -98.5 23t-106.5 46t-71 23q-45 0 -45 -45v-43h-121v51q0 67 42.5 99t108.5 32q52 0 108 -23t100.5 -46t68.5 -23q45 0 45 45v43h121v-53q0 -66 -43 -97.5t-109 -31.5z" />
    <glyph glyph-name="hungarumlaut" unicode="&#x2dd;" horiz-adv-x="1228" 
d="M494 1337l-299 -184l-43 47l251 238zM864 1337l-299 -184l-43 47l254 238z" />
    <glyph glyph-name="gravecomb" unicode="&#x300;" 
d="M-541 1278l49 125l431 -191l-27 -63z" />
    <glyph glyph-name="acutecomb" unicode="&#x301;" 
d="M-63 1278l-451 -129l-29 63l430 191z" />
    <glyph glyph-name="uni0302" unicode="&#x302;" 
d="M-651 1196l227 166h135l228 -166l-80 -80l-215 162l-215 -162z" />
    <glyph glyph-name="tildecomb" unicode="&#x303;" 
d="M-350 1180q-41 0 -98.5 23t-107 46t-71.5 23q-45 0 -45 -45v-43h-121v51q0 67 43 99t109 32q52 0 108 -23t100 -46t68 -23q46 0 46 45v43h120v-53q0 -66 -42.5 -97.5t-108.5 -31.5z" />
    <glyph glyph-name="uni0304" unicode="&#x304;" 
d="M-879 1362h686v-125h-686v125z" />
    <glyph glyph-name="uni0306" unicode="&#x306;" 
d="M-655 1362h98q6 -53 42 -83t99 -30q64 0 100.5 30.5t41.5 82.5h100q-3 -39 -17.5 -74.5t-41.5 -67.5t-74 -50.5t-109 -18.5t-108.5 18.5t-73 50.5t-40.5 67t-17 75z" />
    <glyph glyph-name="uni0307" unicode="&#x307;" 
d="M-336 1192v170h211v-170h-211z" />
    <glyph glyph-name="uni0308" unicode="&#x308;" 
d="M-664 1192v170h199v-170h-199zM-287 1192v170h199v-170h-199z" />
    <glyph glyph-name="uni030A" unicode="&#x30a;" 
d="M-313 1143q-64 0 -102 39.5t-38 97.5q0 56 38 95.5t102 39.5t101.5 -39.5t37.5 -95.5q0 -58 -37.5 -97.5t-101.5 -39.5zM-379 1280q0 -30 19.5 -50t46.5 -20t46 20t19 50t-19 49t-46 19t-46.5 -19t-19.5 -49z" />
    <glyph glyph-name="uni030B" unicode="&#x30b;" 
d="M-520 1337l-299 -184l-43 47l252 238zM-150 1337l-299 -184l-43 47l254 238z" />
    <glyph glyph-name="uni030C" unicode="&#x30c;" 
d="M-764 1311l80 82l215 -164l215 164l80 -82l-227 -164h-136z" />
    <glyph glyph-name="uni0312" unicode="&#x312;" 
d="M-174 1331v-172h-211v299q0 84 39.5 120t128.5 36h43v-107h-105v-176h105z" />
    <glyph glyph-name="uni0326" unicode="&#x326;" 
d="M-291 -287v172h213v-299q0 -84 -39.5 -119.5t-128.5 -35.5h-45v106h105v176h-105z" />
    <glyph glyph-name="uni0327" unicode="&#x327;" 
d="M-426 -334v115h162l-70 266h129l62 -231q19 -74 -12.5 -112t-96.5 -38h-174z" />
    <glyph glyph-name="uni0328" unicode="&#x328;" 
d="M-272 -334q-114 0 -181 57.5t-67 159.5q0 47 15.5 87t43 69.5t53.5 48.5t60 37l33 -51q-42 -40 -62 -77.5t-20 -88.5q0 -60 38 -90.5t97 -30.5q54 0 106 16v-114q-54 -23 -116 -23z" />
    <glyph glyph-name="uni0394" unicode="&#x394;" horiz-adv-x="1437" 
d="M831 1362l504 -1221v-141h-1233v141l504 1221h225zM276 137h883l-440 1077z" />
    <glyph glyph-name="uni03A9" unicode="&#x3a9;" horiz-adv-x="1632" 
d="M106 0v135h386q-179 69 -270 221t-91 361q0 149 41 271.5t122.5 215t214 144t306.5 51.5t307.5 -51.5t215 -144t122.5 -215t41 -271.5q0 -209 -90.5 -361t-269.5 -221h385v-135h-1420zM815 147q262 0 385 138t123 424t-122.5 421.5t-385.5 135.5q-261 0 -383.5 -136
t-122.5 -421q0 -286 122.5 -424t383.5 -138z" />
    <glyph glyph-name="pi" unicode="&#x3c0;" horiz-adv-x="1413" 
d="M1321 895h-277v-762h263v-133h-181q-141 0 -193 55.5t-52 184.5v655h-328v-895h-164v895h-297v129h1229v-129z" />
    <glyph glyph-name="Wgrave" unicode="&#x1e80;" horiz-adv-x="2045" 
d="M1264 1544l-29 -63l-451 129l50 125zM1776 1362h170l-312 -1362h-286l-324 1233l-326 -1233h-286l-312 1362h172l287 -1253l332 1253h266l332 -1253z" />
    <glyph glyph-name="wgrave" unicode="&#x1e81;" horiz-adv-x="1796" 
d="M1143 1212l-27 -63l-452 129l49 125zM1577 1024h160l-312 -1024h-233l-295 829l-293 -829h-233l-314 1024h172l265 -901l323 901h170l324 -901z" />
    <glyph glyph-name="Wacute" unicode="&#x1e82;" horiz-adv-x="2045" 
d="M1262 1610l-451 -129l-29 63l430 191zM1776 1362h170l-312 -1362h-286l-324 1233l-326 -1233h-286l-312 1362h172l287 -1253l332 1253h266l332 -1253z" />
    <glyph glyph-name="wacute" unicode="&#x1e83;" horiz-adv-x="1796" 
d="M1137 1278l-451 -129l-29 63l430 191zM1577 1024h160l-312 -1024h-233l-295 829l-293 -829h-233l-314 1024h172l265 -901l323 901h170l324 -901z" />
    <glyph glyph-name="Wdieresis" unicode="&#x1e84;" horiz-adv-x="2045" 
d="M946 1681v-170h-196v170h196zM1296 1681v-170h-198v170h198zM1776 1362h170l-312 -1362h-286l-324 1233l-326 -1233h-286l-312 1362h172l287 -1253l332 1253h266l332 -1253z" />
    <glyph glyph-name="wdieresis" unicode="&#x1e85;" horiz-adv-x="1796" 
d="M807 1362v-170h-199v170h199zM1184 1362v-170h-199v170h199zM1577 1024h160l-312 -1024h-233l-295 829l-293 -829h-233l-314 1024h172l265 -901l323 901h170l324 -901z" />
    <glyph glyph-name="Ygrave" unicode="&#x1ef2;" horiz-adv-x="1308" 
d="M895 1544l-29 -63l-450 129l49 125zM1061 1362h190l-512 -885v-477h-170v477l-512 885h195l309 -563q66 -126 94 -174q6 11 41.5 75t53.5 99z" />
    <glyph glyph-name="ygrave" unicode="&#x1ef3;" horiz-adv-x="1138" 
d="M813 1212l-27 -63l-452 129l49 125zM926 1024h161l-481 -1194q-27 -71 -46.5 -108.5t-52 -71.5t-77.5 -47t-113 -13h-194v134h285l112 276h-57l-406 1024h172l314 -788l35 -99l30 99z" />
    <glyph glyph-name="endash" unicode="&#x2013;" horiz-adv-x="1159" 
d="M68 573h1024v-124h-1024v124z" />
    <glyph glyph-name="emdash" unicode="&#x2014;" horiz-adv-x="1568" 
d="M68 573h1433v-124h-1433v124z" />
    <glyph glyph-name="quoteleft" unicode="&#x2018;" horiz-adv-x="296" 
d="M254 1081v-174h-211v301q0 84 39 119t127 35h45v-107h-104v-174h104z" />
    <glyph glyph-name="quoteright" unicode="&#x2019;" horiz-adv-x="296" 
d="M43 1190v172h211v-299q0 -84 -39.5 -120t-128.5 -36h-43v107h104v176h-104z" />
    <glyph glyph-name="quotesinglbase" unicode="&#x201a;" horiz-adv-x="296" 
d="M43 8v172h211v-299q0 -84 -39.5 -118.5t-128.5 -34.5h-43v106h104v174h-104z" />
    <glyph glyph-name="quotedblleft" unicode="&#x201c;" horiz-adv-x="593" 
d="M254 1081v-174h-211v301q0 84 39 119t127 35h45v-107h-104v-174h104zM551 1081v-174h-211v301q0 84 39 119t127 35h45v-107h-105v-174h105z" />
    <glyph glyph-name="quotedblright" unicode="&#x201d;" horiz-adv-x="593" 
d="M43 1190v172h211v-299q0 -84 -39.5 -120t-128.5 -36h-43v107h104v176h-104zM340 1190v172h211v-299q0 -84 -39.5 -120t-128.5 -36h-43v107h104v176h-104z" />
    <glyph glyph-name="quotedblbase" unicode="&#x201e;" horiz-adv-x="296" 
d="M43 8v172h211v-299q0 -84 -39.5 -118.5t-128.5 -34.5h-43v106h104v174h-104z" />
    <glyph glyph-name="dagger" unicode="&#x2020;" horiz-adv-x="1134" 
d="M961 1202v-147h-312v-662h-164v662h-311v147h311v324h164v-324h312z" />
    <glyph glyph-name="daggerdbl" unicode="&#x2021;" horiz-adv-x="1134" 
d="M961 1094h-312v-269h312v-147h-312v-285h-164v285h-311v147h311v269h-311v147h311v285h164v-285h312v-147z" />
    <glyph glyph-name="bullet" unicode="&#x2022;" horiz-adv-x="743" 
d="M371 344q-74 0 -120 46.5t-46 121.5t46 120.5t120 45.5q75 0 121.5 -45.5t46.5 -120.5t-46.5 -121.5t-121.5 -46.5z" />
    <glyph glyph-name="ellipsis" unicode="&#x2026;" horiz-adv-x="1116" 
d="M43 0v180h213v-180h-213zM453 0v180h213v-180h-213zM862 0v180h213v-180h-213z" />
    <glyph glyph-name="perthousand" unicode="&#x2030;" horiz-adv-x="2379" 
d="M102 0v25l1268 1214h-625v-422h-567v545h1280q101 0 101 -82q0 -52 -60 -109l-1227 -1171h-170zM311 940h305v299h-305v-299zM973 0v543h567v-543h-567zM1710 0v543h567v-543h-567zM1106 123h303v301h-303v-301zM1843 123h305v301h-305v-301z" />
    <glyph glyph-name="guilsinglleft" unicode="&#x2039;" horiz-adv-x="837" 
d="M117 506v12l422 506h192l-436 -512l436 -512h-192z" />
    <glyph glyph-name="guilsinglright" unicode="&#x203a;" horiz-adv-x="837" 
d="M721 506l-422 -506h-193l437 512l-437 512h193l422 -506v-12z" />
    <glyph glyph-name="Euro" unicode="&#x20ac;" horiz-adv-x="1820" 
d="M1159 856v-127h-995v127h174q28 163 108.5 282.5t224 190t337.5 70.5q590 0 643 -545h-172q-22 201 -139 302t-336 101q-419 0 -490 -401h645zM1483 543h174q-9 -133 -51 -237t-120 -181.5t-200 -118.5t-282 -41q-279 0 -445 136.5t-215 373.5h-180v125h995v-125h-639
q77 -369 479 -369q228 0 349 113t135 324z" />
    <glyph glyph-name="trademark" unicode="&#x2122;" horiz-adv-x="2764" 
d="M2626 1362v-1362h-170v1235l-461 -1235h-230l-458 1235v-1235h-170v1225h-410v-1227h-168v1227h-491v137h1366l448 -1208l451 1208h293z" />
    <glyph glyph-name="arrowleft" unicode="&#x2190;" horiz-adv-x="1589" 
d="M1487 676v-133h-1125l476 -471l-99 -101l-637 639l637 637l99 -98l-478 -473h1127z" />
    <glyph glyph-name="arrowup" unicode="&#x2191;" horiz-adv-x="1480" 
d="M1378 748l-98 -97l-467 471v-1122h-145v1120l-467 -469l-99 97l639 636z" />
    <glyph glyph-name="arrowright" unicode="&#x2192;" horiz-adv-x="1589" 
d="M850 1247l637 -637l-637 -639l-98 101l475 471h-1125v133h1127l-477 473z" />
    <glyph glyph-name="arrowdown" unicode="&#x2193;" horiz-adv-x="1480" 
d="M1280 682l98 -96l-637 -637l-639 637l99 96l467 -469v1120h145v-1122z" />
    <glyph glyph-name="uni2196" unicode="&#x2196;" horiz-adv-x="1234" 
d="M1133 96l-103 -102l-792 792l2 -663h-138v901h902v-137l-664 2z" />
    <glyph glyph-name="uni2197" unicode="&#x2197;" horiz-adv-x="1234" 
d="M231 1024h902v-901h-138l2 663l-792 -792l-103 102l793 793l-664 -2v137z" />
    <glyph glyph-name="uni2198" unicode="&#x2198;" horiz-adv-x="1234" 
d="M995 901h138v-901h-902v137l664 -2l-793 793l103 102l792 -792z" />
    <glyph glyph-name="uni2199" unicode="&#x2199;" horiz-adv-x="1234" 
d="M1133 928l-793 -793l664 2v-137h-902v901h138l-2 -663l792 792z" />
    <glyph glyph-name="partialdiff" unicode="&#x2202;" horiz-adv-x="1214" 
d="M100 512q0 120 28.5 218.5t85 172t147 114t208.5 40.5q138 0 236 -59t151 -169q0 79 -30.5 160t-89.5 157.5t-155 143.5t-218 109l59 117q314 -103 453 -316.5t139 -570.5q0 -343 -128 -502.5t-378 -159.5q-128 0 -226.5 41t-159.5 114.5t-91.5 172t-30.5 217.5zM266 512
q0 -208 81.5 -310t254.5 -102q169 0 261.5 101t92.5 311t-92.5 311t-261.5 101q-173 0 -254.5 -101.5t-81.5 -310.5z" />
    <glyph glyph-name="product" unicode="&#x220f;" horiz-adv-x="1556" 
d="M1399 1526v-148h-254v-1788h-164v1788h-379v-1788h-164v1788h-254v148h1215z" />
    <glyph glyph-name="summation" unicode="&#x2211;" horiz-adv-x="1300" 
d="M1137 1526v-148h-783l541 -819l-541 -821h783v-148h-973v148l541 821l-541 819v148h973z" />
    <glyph glyph-name="minus" unicode="&#x2212;" horiz-adv-x="1167" 
d="M174 573h819v-124h-819v124z" />
    <glyph glyph-name="radical" unicode="&#x221a;" horiz-adv-x="1894" 
d="M1772 1526v-148h-400l-584 -1788h-247l-377 938h164l331 -823l596 1821h517z" />
    <glyph glyph-name="infinity" unicode="&#x221e;" horiz-adv-x="1656" 
d="M485 246q-147 0 -234 92t-87 225q0 130 87 220.5t234 90.5t234.5 -90.5t87.5 -220.5q0 -133 -87.5 -225t-234.5 -92zM1169 246q-147 0 -234 92t-87 225q0 130 87 220.5t234 90.5q148 0 236 -90.5t88 -220.5q0 -133 -88 -225t-236 -92zM291 563q0 -90 56.5 -145.5
t137.5 -55.5q82 0 138.5 55.5t56.5 145.5t-56 142.5t-139 52.5q-82 0 -138 -52.5t-56 -142.5zM977 563q0 -90 56 -145.5t136 -55.5q82 0 138.5 55.5t56.5 145.5t-56 142.5t-139 52.5q-82 0 -137 -52.5t-55 -142.5z" />
    <glyph glyph-name="integral" unicode="&#x222b;" horiz-adv-x="1230" 
d="M164 -410v148h268l197 1548q9 67 22.5 107.5t42 73t75.5 46t120 13.5h178v-148h-270l-197 -1548q-9 -67 -22.5 -107.5t-42 -73t-75.5 -46t-120 -13.5h-176z" />
    <glyph glyph-name="approxequal" unicode="&#x2248;" horiz-adv-x="1009" 
d="M676 590q-48 0 -92 18.5t-75 44.5t-58 52t-53 44.5t-48 18.5q-55 0 -55 -78v-96h-121v125q0 86 44 124t114 38q62 0 116 -28.5t84.5 -62t65.5 -62t64 -28.5q53 0 53 78v99h121v-125q0 -84 -48.5 -123t-111.5 -39zM676 139q-48 0 -92 18.5t-75 45t-58 53t-53 45t-48 18.5
q-55 0 -55 -77v-99h-121v125q0 86 44 124t114 38q51 0 95.5 -18.5t75 -44.5t56.5 -52t52.5 -44.5t50.5 -18.5q53 0 53 78v96h121v-125q0 -84 -48.5 -123t-111.5 -39z" />
    <glyph glyph-name="notequal" unicode="&#x2260;" horiz-adv-x="989" 
d="M815 612h-221l-74 -202h295v-125h-338l-76 -209h-120l75 209h-182v125h225l74 202h-299v125h344l72 201h121l-72 -201h176v-125z" />
    <glyph glyph-name="lessequal" unicode="&#x2264;" horiz-adv-x="1091" 
d="M954 926v-123l-714 -137l714 -138v-120l-817 155v205zM137 143v127h817v-127h-817z" />
    <glyph glyph-name="greaterequal" unicode="&#x2265;" horiz-adv-x="1091" 
d="M137 926l817 -158v-205l-817 -155v120l715 138l-715 137v123zM137 143v127h817v-127h-817z" />
    <glyph glyph-name="filledbox" unicode="&#x25a0;" horiz-adv-x="1568" 
d="M102 1362h1364v-1362h-1364v1362z" />
    <glyph glyph-name="triagup" unicode="&#x25b2;" horiz-adv-x="1728" 
d="M864 1362l762 -1362h-1524z" />
    <glyph glyph-name="lozenge" unicode="&#x25ca;" horiz-adv-x="1265" 
d="M758 1362l344 -680l-344 -682h-248l-346 682l346 680h248zM633 86l303 596l-303 596l-301 -596z" />
    <glyph glyph-name="uni25CF" unicode="&#x25cf;" horiz-adv-x="1640" 
d="M823 -37q-197 0 -363 96t-262 262t-96 363q0 146 56.5 278t153 228t230 152.5t281.5 56.5q146 0 278 -56.5t228 -152.5t152.5 -228t56.5 -278q0 -148 -56.5 -281.5t-152.5 -230t-228 -153t-278 -56.5z" />
    <glyph glyph-name="G.ss03" horiz-adv-x="1599" 
d="M772 -35q-165 0 -292.5 53.5t-207 150t-119.5 226t-40 287.5q0 157 42.5 286.5t125.5 226.5t216 150.5t306 53.5q589 0 649 -525h-176q-26 198 -140.5 290.5t-338.5 92.5q-258 0 -382 -142.5t-124 -432.5q0 -288 123 -432t383 -144q420 0 487 439h-614v127h610
q83 0 126.5 -43.5t43.5 -126.5v-500h-154v332q-18 -62 -47 -115t-73.5 -100.5t-101.5 -81t-134 -53t-168 -19.5z" />
    <glyph glyph-name="Gbreve.ss03" horiz-adv-x="1599" 
d="M547 1720h98q6 -52 42 -82t99 -30q65 0 101 30t41 82h100q-3 -39 -17.5 -74t-41.5 -67t-74.5 -51t-108.5 -19t-108 19t-73.5 51t-40.5 67t-17 74zM772 -35q-165 0 -292.5 53.5t-207 150t-119.5 226t-40 287.5q0 157 42.5 286.5t125.5 226.5t216 150.5t306 53.5
q589 0 649 -525h-176q-26 198 -140.5 290.5t-338.5 92.5q-258 0 -382 -142.5t-124 -432.5q0 -288 123 -432t383 -144q420 0 487 439h-614v127h610q83 0 126.5 -43.5t43.5 -126.5v-500h-154v332q-18 -62 -47 -115t-73.5 -100.5t-101.5 -81t-134 -53t-168 -19.5z" />
    <glyph glyph-name="uni0122.ss03" horiz-adv-x="1599" 
d="M772 -35q-165 0 -292.5 53.5t-207 150t-119.5 226t-40 287.5q0 157 42.5 286.5t125.5 226.5t216 150.5t306 53.5q589 0 649 -525h-176q-26 198 -140.5 290.5t-338.5 92.5q-258 0 -382 -142.5t-124 -432.5q0 -288 123 -432t383 -144q420 0 487 439h-614v127h610
q83 0 126.5 -43.5t43.5 -126.5v-500h-154v332q-18 -62 -47 -115t-73.5 -100.5t-101.5 -81t-134 -53t-168 -19.5zM680 -287v172h213v-299q0 -84 -39.5 -119.5t-128.5 -35.5h-45v106h104v176h-104z" />
    <glyph glyph-name="Gdotaccent.ss03" horiz-adv-x="1599" 
d="M680 1511v170h211v-170h-211zM772 -35q-165 0 -292.5 53.5t-207 150t-119.5 226t-40 287.5q0 157 42.5 286.5t125.5 226.5t216 150.5t306 53.5q589 0 649 -525h-176q-26 198 -140.5 290.5t-338.5 92.5q-258 0 -382 -142.5t-124 -432.5q0 -288 123 -432t383 -144
q420 0 487 439h-614v127h610q83 0 126.5 -43.5t43.5 -126.5v-500h-154v332q-18 -62 -47 -115t-73.5 -100.5t-101.5 -81t-134 -53t-168 -19.5z" />
    <glyph glyph-name="Q.ss03" horiz-adv-x="1583" 
d="M1470 682q0 -198 -64.5 -352.5t-195.5 -247.5l133 -188l-133 -93l-145 207q-116 -43 -274 -43q-173 0 -304.5 53.5t-212.5 151t-121 226t-40 286.5q0 156 40 284t120.5 226t212.5 152.5t305 54.5t305 -55t212.5 -153t121 -226.5t40.5 -282.5zM791 106q102 0 188 25
l-213 303l133 92l225 -321q168 134 168 477q0 290 -121.5 432.5t-379.5 142.5t-379 -142t-121 -433t121 -433.5t379 -142.5z" />
    <glyph glyph-name="R.ss03" horiz-adv-x="1333" 
d="M934 139h266v-139h-270q-68 0 -105 22t-61 82l-201 506h-254v-610h-170v1362h635q208 0 313 -95.5t105 -275.5q0 -83 -23 -150t-72 -120t-133 -82t-198 -29h-25zM309 1225v-488h439q140 0 203 64t63 186q0 238 -258 238h-447z" />
    <glyph glyph-name="Racute.ss03" horiz-adv-x="1333" 
d="M905 1610l-450 -129l-29 63l430 191zM934 139h266v-139h-270q-68 0 -105 22t-61 82l-201 506h-254v-610h-170v1362h635q208 0 313 -95.5t105 -275.5q0 -83 -23 -150t-72 -120t-133 -82t-198 -29h-25zM309 1225v-488h439q140 0 203 64t63 186q0 238 -258 238h-447z" />
    <glyph glyph-name="Rcaron.ss03" horiz-adv-x="1333" 
d="M735 1503h-135l-227 166l80 80l215 -162l215 162l80 -80zM934 139h266v-139h-270q-68 0 -105 22t-61 82l-201 506h-254v-610h-170v1362h635q208 0 313 -95.5t105 -275.5q0 -83 -23 -150t-72 -120t-133 -82t-198 -29h-25zM309 1225v-488h439q140 0 203 64t63 186
q0 238 -258 238h-447z" />
    <glyph glyph-name="uni0156.ss03" horiz-adv-x="1333" 
d="M934 139h266v-139h-270q-68 0 -105 22t-61 82l-201 506h-254v-610h-170v1362h635q208 0 313 -95.5t105 -275.5q0 -83 -23 -150t-72 -120t-133 -82t-198 -29h-25zM309 1225v-488h439q140 0 203 64t63 186q0 238 -258 238h-447zM561 -287v172h213v-299q0 -84 -39.5 -119.5
t-128.5 -35.5h-45v106h105v176h-105z" />
    <glyph glyph-name="i.loclTRK" horiz-adv-x="464" 
d="M127 1192v170h211v-170h-211zM150 0v1024h163v-1024h-163z" />
    <glyph glyph-name="a.ss01" horiz-adv-x="1271" 
d="M958 1024h164v-1024h-164v197q-111 -230 -389 -230q-118 0 -208.5 40.5t-147 114t-85 172t-28.5 218.5q0 119 28.5 217.5t85 172t147 114.5t208.5 41q278 0 389 -230v197zM602 100q170 0 263 101t93 311t-93 311t-263 101q-173 0 -254.5 -101.5t-81.5 -310.5t81.5 -310.5
t254.5 -101.5z" />
    <glyph glyph-name="aacute.ss01" horiz-adv-x="1271" 
d="M874 1278l-450 -129l-29 63l430 191zM958 1024h164v-1024h-164v197q-111 -230 -389 -230q-118 0 -208.5 40.5t-147 114t-85 172t-28.5 218.5q0 119 28.5 217.5t85 172t147 114.5t208.5 41q278 0 389 -230v197zM602 100q170 0 263 101t93 311t-93 311t-263 101
q-173 0 -254.5 -101.5t-81.5 -310.5t81.5 -310.5t254.5 -101.5z" />
    <glyph glyph-name="abreve.ss01" horiz-adv-x="1271" 
d="M635 1151q-62 0 -108.5 18.5t-73.5 50.5t-41 67t-17 75h99q6 -53 42 -83t99 -30q64 0 100 30.5t41 82.5h101q-3 -39 -17.5 -74.5t-41.5 -67.5t-74 -50.5t-109 -18.5zM958 1024h164v-1024h-164v197q-111 -230 -389 -230q-118 0 -208.5 40.5t-147 114t-85 172t-28.5 218.5
q0 119 28.5 217.5t85 172t147 114.5t208.5 41q278 0 389 -230v197zM602 100q170 0 263 101t93 311t-93 311t-263 101q-173 0 -254.5 -101.5t-81.5 -310.5t81.5 -310.5t254.5 -101.5z" />
    <glyph glyph-name="acircumflex.ss01" horiz-adv-x="1271" 
d="M637 1278l-215 -162l-80 80l227 166h136l227 -166l-80 -80zM958 1024h164v-1024h-164v197q-111 -230 -389 -230q-118 0 -208.5 40.5t-147 114t-85 172t-28.5 218.5q0 119 28.5 217.5t85 172t147 114.5t208.5 41q278 0 389 -230v197zM602 100q170 0 263 101t93 311
t-93 311t-263 101q-173 0 -254.5 -101.5t-81.5 -310.5t81.5 -310.5t254.5 -101.5z" />
    <glyph glyph-name="adieresis.ss01" horiz-adv-x="1271" 
d="M547 1362v-170h-199v170h199zM924 1362v-170h-199v170h199zM958 1024h164v-1024h-164v197q-111 -230 -389 -230q-118 0 -208.5 40.5t-147 114t-85 172t-28.5 218.5q0 119 28.5 217.5t85 172t147 114.5t208.5 41q278 0 389 -230v197zM602 100q170 0 263 101t93 311
t-93 311t-263 101q-173 0 -254.5 -101.5t-81.5 -310.5t81.5 -310.5t254.5 -101.5z" />
    <glyph glyph-name="agrave.ss01" horiz-adv-x="1271" 
d="M881 1212l-27 -63l-453 129l50 125zM958 1024h164v-1024h-164v197q-111 -230 -389 -230q-118 0 -208.5 40.5t-147 114t-85 172t-28.5 218.5q0 119 28.5 217.5t85 172t147 114.5t208.5 41q278 0 389 -230v197zM602 100q170 0 263 101t93 311t-93 311t-263 101
q-173 0 -254.5 -101.5t-81.5 -310.5t81.5 -310.5t254.5 -101.5z" />
    <glyph glyph-name="amacron.ss01" horiz-adv-x="1271" 
d="M979 1362v-125h-686v125h686zM958 1024h164v-1024h-164v197q-111 -230 -389 -230q-118 0 -208.5 40.5t-147 114t-85 172t-28.5 218.5q0 119 28.5 217.5t85 172t147 114.5t208.5 41q278 0 389 -230v197zM602 100q170 0 263 101t93 311t-93 311t-263 101
q-173 0 -254.5 -101.5t-81.5 -310.5t81.5 -310.5t254.5 -101.5z" />
    <glyph glyph-name="aogonek.ss01" horiz-adv-x="1271" 
d="M1149 -213q54 0 106 16v-114q-54 -23 -116 -23q-114 0 -181 57.5t-67 159.5q0 99 67 166v148q-111 -230 -389 -230q-118 0 -208.5 40.5t-147 114t-85 172t-28.5 218.5q0 119 28.5 217.5t85 172t147 114.5t208.5 41q278 0 389 -230v197h164v-1024h-86q-22 -42 -22 -92
q0 -60 38 -90.5t97 -30.5zM602 100q170 0 263 101t93 311t-93 311t-263 101q-173 0 -254.5 -101.5t-81.5 -310.5t81.5 -310.5t254.5 -101.5z" />
    <glyph glyph-name="aring.ss01" horiz-adv-x="1271" 
d="M637 1143q-64 0 -101.5 39.5t-37.5 97.5q0 56 37.5 95.5t101.5 39.5t101.5 -39.5t37.5 -95.5q0 -58 -37.5 -97.5t-101.5 -39.5zM637 1348q-27 0 -46.5 -19t-19.5 -49t19.5 -50t46.5 -20t46 20t19 50t-19 49t-46 19zM958 1024h164v-1024h-164v197q-111 -230 -389 -230
q-118 0 -208.5 40.5t-147 114t-85 172t-28.5 218.5q0 119 28.5 217.5t85 172t147 114.5t208.5 41q278 0 389 -230v197zM602 100q170 0 263 101t93 311t-93 311t-263 101q-173 0 -254.5 -101.5t-81.5 -310.5t81.5 -310.5t254.5 -101.5z" />
    <glyph glyph-name="atilde.ss01" horiz-adv-x="1271" 
d="M461 1227v-43h-121v51q0 67 43 99t109 32q52 0 108 -23t100 -46t68 -23q45 0 45 45v43h121v-53q0 -66 -43 -97.5t-109 -31.5q-41 0 -98.5 23t-106.5 46t-71 23q-45 0 -45 -45zM958 1024h164v-1024h-164v197q-111 -230 -389 -230q-118 0 -208.5 40.5t-147 114t-85 172
t-28.5 218.5q0 119 28.5 217.5t85 172t147 114.5t208.5 41q278 0 389 -230v197zM602 100q170 0 263 101t93 311t-93 311t-263 101q-173 0 -254.5 -101.5t-81.5 -310.5t81.5 -310.5t254.5 -101.5z" />
    <glyph glyph-name="g.ss02" horiz-adv-x="1157" 
d="M793 113q150 0 226.5 -68.5t76.5 -191.5q0 -287 -500 -287q-230 0 -348.5 72t-118.5 200q0 68 40.5 121t98.5 76q-49 19 -77.5 57.5t-28.5 89.5q0 77 50.5 125.5t129.5 54.5q-201 90 -201 312q0 96 33.5 167.5t92.5 113t132 61.5t160 20q131 0 214.5 -48.5t123.5 -123.5
v160h145v-365q0 -171 -113 -267.5t-333 -96.5h-176q-129 0 -129 -94q0 -40 28.5 -64t75.5 -24h398zM594 918q-301 0 -301 -254q0 -132 76 -190t225 -58q151 0 224 58t73 192q0 120 -80 186t-217 66zM594 -324q342 0 342 168q0 64 -43.5 102t-120.5 38h-360q-56 0 -96 -36
t-40 -98q0 -174 318 -174z" />
    <glyph glyph-name="gbreve.ss02" horiz-adv-x="1157" 
d="M580 1151q-62 0 -108.5 18.5t-73.5 50.5t-41 67t-17 75h98q6 -52 42.5 -82.5t99.5 -30.5q64 0 100 30.5t41 82.5h100q-3 -39 -17.5 -74.5t-41 -67.5t-73.5 -50.5t-109 -18.5zM793 113q150 0 226.5 -68.5t76.5 -191.5q0 -287 -500 -287q-230 0 -348.5 72t-118.5 200
q0 68 40.5 121t98.5 76q-49 19 -77.5 57.5t-28.5 89.5q0 77 50.5 125.5t129.5 54.5q-201 90 -201 312q0 96 33.5 167.5t92.5 113t132 61.5t160 20q131 0 214.5 -48.5t123.5 -123.5v160h145v-365q0 -171 -113 -267.5t-333 -96.5h-176q-129 0 -129 -94q0 -40 28.5 -64
t75.5 -24h398zM594 918q-301 0 -301 -254q0 -132 76 -190t225 -58q151 0 224 58t73 192q0 120 -80 186t-217 66zM594 -324q342 0 342 168q0 64 -43.5 102t-120.5 38h-360q-56 0 -96 -36t-40 -98q0 -174 318 -174z" />
    <glyph glyph-name="uni0123.ss02" horiz-adv-x="1157" 
d="M684 1331v-172h-211v299q0 84 39.5 120t128.5 36h43v-107h-104v-176h104zM793 113q150 0 226.5 -68.5t76.5 -191.5q0 -287 -500 -287q-230 0 -348.5 72t-118.5 200q0 68 40.5 121t98.5 76q-49 19 -77.5 57.5t-28.5 89.5q0 77 50.5 125.5t129.5 54.5q-201 90 -201 312
q0 96 33.5 167.5t92.5 113t132 61.5t160 20q131 0 214.5 -48.5t123.5 -123.5v160h145v-365q0 -171 -113 -267.5t-333 -96.5h-176q-129 0 -129 -94q0 -40 28.5 -64t75.5 -24h398zM594 918q-301 0 -301 -254q0 -132 76 -190t225 -58q151 0 224 58t73 192q0 120 -80 186
t-217 66zM594 -324q342 0 342 168q0 64 -43.5 102t-120.5 38h-360q-56 0 -96 -36t-40 -98q0 -174 318 -174z" />
    <glyph glyph-name="gdotaccent.ss02" horiz-adv-x="1157" 
d="M684 1362v-170h-211v170h211zM793 113q150 0 226.5 -68.5t76.5 -191.5q0 -287 -500 -287q-230 0 -348.5 72t-118.5 200q0 68 40.5 121t98.5 76q-49 19 -77.5 57.5t-28.5 89.5q0 77 50.5 125.5t129.5 54.5q-201 90 -201 312q0 96 33.5 167.5t92.5 113t132 61.5t160 20
q131 0 214.5 -48.5t123.5 -123.5v160h145v-365q0 -171 -113 -267.5t-333 -96.5h-176q-129 0 -129 -94q0 -40 28.5 -64t75.5 -24h398zM594 918q-301 0 -301 -254q0 -132 76 -190t225 -58q151 0 224 58t73 192q0 120 -80 186t-217 66zM594 -324q342 0 342 168q0 64 -43.5 102
t-120.5 38h-360q-56 0 -96 -36t-40 -98q0 -174 318 -174z" />
    <glyph glyph-name="f_f_j" horiz-adv-x="1751" 
d="M1311 1024v-129h-293v-895h-164v895h-455v-895h-163v895h-173v92l173 43v197q0 107 58.5 157t201.5 50h223v-125h-332v-285h467v203q0 106 59.5 156.5t202.5 50.5h520v-125h-628v-285h303zM1477 1024h163v-1194q0 -126 -58.5 -183t-201.5 -57h-170v134h267v1300z" />
    <glyph glyph-name="f_f_t" horiz-adv-x="2058" 
d="M1995 895h-338v-762h325v-133h-241q-143 0 -195.5 55.5t-52.5 184.5v655h-475v-895h-164v895h-455v-895h-163v895h-173v92l173 43v197q0 107 58.5 157t201.5 50h223v-125h-332v-285h442l25 6v197q0 106 59.5 156.5t202.5 50.5h205v-125h-313v-285h493l68 227h88v-227h338
v-129z" />
    <glyph glyph-name="f_j" horiz-adv-x="1159" 
d="M236 0v895h-173v92l173 43v197q0 107 58.5 157t201.5 50h548v-125h-657v-285h338v-129h-326v-895h-163zM618 -410v134h267v1300h164v-1194q0 -126 -59.5 -183t-203.5 -57h-168z" />
    <glyph glyph-name="f_t" horiz-adv-x="1437" 
d="M1376 895h-338v-762h324v-133h-242q-141 0 -193.5 56t-52.5 184v655h-475v-895h-163v895h-173v92l173 43v197q0 107 58.5 157t201.5 50h204v-125h-313v-285h496l67 227h88v-227h338v-129z" />
    <glyph glyph-name="r_t" horiz-adv-x="1452" 
d="M1391 895h-353v-762h338v-133h-254q-143 0 -195.5 55.5t-52.5 184.5v770l76 241h88v-227h353v-129zM313 754q102 284 375 284h37v-161h-43q-89 3 -154.5 -21t-106.5 -66.5t-65.5 -109t-33.5 -138.5t-9 -165v-377h-163v1024h163v-270z" />
    <glyph glyph-name="r_t_t" horiz-adv-x="2107" 
d="M2044 895h-338v-762h326v-133h-242q-143 0 -195.5 55.5t-52.5 184.5v655h-504v-762h326v-133h-242q-143 0 -195.5 55.5t-52.5 184.5v770l76 241h88v-227h510l70 227h88v-227h338v-129zM313 754q102 284 375 284h37v-161h-43q-89 3 -154.5 -21t-106.5 -66.5t-65.5 -109
t-33.5 -138.5t-9 -165v-377h-163v1024h163v-270z" />
    <glyph glyph-name="t_t" horiz-adv-x="1468" 
d="M1405 895h-338v-762h326v-133h-242q-143 0 -195.5 55.5t-52.5 184.5v655h-504v-762h326v-133h-242q-142 0 -194.5 55.5t-52.5 184.5v655h-195v92l209 51l61 213h88v-227h510l70 227h88v-227h338v-129z" />
    <glyph glyph-name="asterisk.case" horiz-adv-x="1560" 
d="M1460 614h-174l-467 52l367 -295l123 -123l-95 -96l-122 122l-297 371l53 -471v-174h-135v174l51 469l-295 -369l-123 -122l-96 96l123 123l368 295l-469 -52h-174v134l174 2l471 -54l-368 295l-123 123l94 96l123 -123l295 -366l-51 467v174h135v-174l-53 -469l295 368
l122 123l97 -96l-123 -123l-369 -295l469 54h174v-136z" />
    <glyph glyph-name="percent.alt" horiz-adv-x="1585" 
d="M391 823q-143 0 -216 81t-73 208q0 125 73.5 206t215.5 81t215.5 -81t73.5 -206q0 -127 -73 -208t-216 -81zM150 0v25l1079 1337h168v-25l-1073 -1337h-174zM391 948q77 0 113.5 38.5t36.5 125.5q0 89 -36.5 126.5t-113.5 37.5t-113 -37.5t-36 -126.5q0 -88 36 -126
t113 -38zM1194 -12q-143 0 -216 80.5t-73 207.5q0 125 73.5 206t215.5 81t215.5 -81t73.5 -206q0 -127 -73 -207.5t-216 -80.5zM1194 113q77 0 114.5 38t37.5 125q0 88 -37.5 126t-114.5 38q-76 0 -113 -38t-37 -126q0 -87 37 -125t113 -38z" />
    <glyph glyph-name="uni2197.case" horiz-adv-x="1234" 
d="M231 1362h902v-901h-138l2 663l-792 -792l-103 102l793 793l-664 -2v137z" />
    <glyph glyph-name="uni2196.case" horiz-adv-x="1234" 
d="M1133 434l-103 -102l-792 792l2 -663h-138v901h902v-137l-664 2z" />
    <glyph glyph-name="uni0308.case" 
d="M-662 1511v170h197v-170h-197zM-313 1511v170h198v-170h-198z" />
    <glyph glyph-name="uni0307.case" 
d="M-336 1511v170h211v-170h-211z" />
    <glyph glyph-name="gravecomb.case" 
d="M-541 1610l49 125l431 -191l-29 -63z" />
    <glyph glyph-name="acutecomb.case" 
d="M-61 1610l-451 -129l-29 63l430 191z" />
    <glyph glyph-name="uni030B.case" 
d="M-545 1681l-299 -184l-43 47l254 238zM-174 1681l-297 -184l-45 47l254 238z" />
    <glyph glyph-name="uni0302.case" 
d="M-651 1579l227 164h135l228 -164l-80 -82l-215 164l-215 -164z" />
    <glyph glyph-name="uni030C.case" 
d="M-764 1669l80 80l215 -162l215 162l80 -80l-227 -166h-136z" />
    <glyph glyph-name="uni0306.case" 
d="M-655 1720h98q6 -52 42 -82t99 -30q65 0 101 30t41 82h100q-3 -39 -17.5 -74t-41.5 -67t-74.5 -51t-108.5 -19t-108 19t-73.5 51t-40.5 67t-17 74z" />
    <glyph glyph-name="uni030A.case" 
d="M-313 1458q-71 0 -113.5 45t-42.5 109q0 63 42.5 107t113.5 44t113 -44t42 -107q0 -64 -42 -109t-113 -45zM-385 1612q0 -33 21 -54.5t51 -21.5t50.5 21.5t20.5 54.5q0 34 -20.5 54t-50.5 20t-51 -20t-21 -54z" />
    <glyph glyph-name="tildecomb.case" 
d="M-350 1536q-41 0 -98.5 23.5t-107 47t-71.5 23.5q-45 0 -45 -47v-43h-121v53q0 67 43 99t109 32q52 0 108 -23.5t100 -47t68 -23.5q46 0 46 47v43h120v-53q0 -67 -42.5 -99t-108.5 -32z" />
    <glyph glyph-name="uni0304.case" 
d="M-860 1688h686v-125h-686v125z" />
    <glyph glyph-name="uni0312.case" 
d="M-174 1630v-172h-211v299q0 84 39.5 120t128.5 36h43v-107h-105v-176h105z" />
    </font>
</defs>
</svg>
