<?xml version="1.0" standalone="no"?>
<!DOCTYPE svg PUBLIC "-//W3C//DTD SVG 1.1//EN" "http://www.w3.org/Graphics/SVG/1.1/DTD/svg11.dtd" >
<svg xmlns="http://www.w3.org/2000/svg" xmlns:xlink="http://www.w3.org/1999/xlink" version="1.1">
<metadata>
Created by FontForge 20170731 at Sun Jun 12 09:38:45 2022
 By Aleksey,,,
HTF Gotham Copr. 2003 The Hoefler Type Foundry, Inc. Info: www.typography.com
</metadata>
<defs>
<font id="Gotham-Thin" horiz-adv-x="1024" >
  <font-face 
    font-family="Gotham Thin"
    font-weight="500"
    font-stretch="normal"
    units-per-em="2048"
    panose-1="0 0 0 0 0 0 0 0 0 0"
    ascent="1638"
    descent="-410"
    x-height="1024"
    cap-height="1434"
    bbox="-92 -342 2275 1821"
    underline-thickness="40"
    underline-position="-312"
    unicode-range="U+0020-FB02"
  />
<missing-glyph 
 />
    <glyph glyph-name=".notdef" 
 />
    <glyph glyph-name=".null" horiz-adv-x="0" 
 />
    <glyph glyph-name="nonmarkingreturn" horiz-adv-x="682" 
 />
    <glyph glyph-name="space" unicode=" " horiz-adv-x="573" 
 />
    <glyph glyph-name="exclam" unicode="!" horiz-adv-x="397" 
d="M188 375l-12 837v222h45v-222l-12 -837h-21zM162 0v106h74v-106h-74z" />
    <glyph glyph-name="quotedbl" unicode="&#x22;" horiz-adv-x="622" 
d="M385 913l72 521h51v-4l-98 -517h-25zM123 913l72 521h51v-4l-99 -517h-24z" />
    <glyph glyph-name="numbersign" unicode="#" horiz-adv-x="1351" 
d="M266 0l70 412h-236v39h242l94 544h-254v39h260l70 400h41l-70 -400h490l69 400h41l-69 -400h235v-39h-241l-93 -544h252v-39h-260l-69 -412h-41l69 412h-489l-70 -412h-41zM383 449h489l95 548h-488z" />
    <glyph glyph-name="dollar" unicode="$" horiz-adv-x="1273" 
d="M618 2q-135 10 -259.5 67.5t-221.5 151.5l31 31q195 -192 450 -213v676q-222 49 -326 131t-104 227v4q0 150 119.5 252.5t310.5 102.5v120h39v-120q238 -11 418 -168l-28 -33q-89 77 -180.5 117.5t-209.5 46.5v-650q240 -54 351.5 -137t111.5 -233v-4q0 -161 -121.5 -266
t-322.5 -105h-19v-201h-39v203zM618 1395q-172 0 -278.5 -91.5t-106.5 -224.5v-4q0 -129 89.5 -198.5t295.5 -118.5v637zM657 37h21q178 0 287.5 95t109.5 237v4q0 71 -25 123t-81 90.5t-128 65t-184 53.5v-668z" />
    <glyph glyph-name="percent" unicode="%" horiz-adv-x="1626" 
d="M428 713q-139 0 -228 107.5t-89 258.5v4q0 97 39 180.5t112.5 135t165.5 51.5q140 0 228.5 -108.5t88.5 -258.5v-4q0 -151 -88 -258.5t-229 -107.5zM264 0l1053 1434h45l-1053 -1434h-45zM1198 -16q-139 0 -228 107.5t-89 258.5v4q0 97 39 180.5t112.5 135t165.5 51.5
q140 0 229 -108.5t89 -258.5v-4q0 -151 -88.5 -258.5t-229.5 -107.5zM430 752q122 0 196 95.5t74 229.5v4q0 133 -76.5 231.5t-197.5 98.5q-120 0 -195 -96.5t-75 -229.5v-4q0 -134 76.5 -231.5t197.5 -97.5zM1200 23q122 0 196 95.5t74 229.5v4q0 133 -76.5 231.5
t-197.5 98.5q-120 0 -195 -96.5t-75 -229.5v-4q0 -134 76.5 -231.5t197.5 -97.5z" />
    <glyph glyph-name="ampersand" unicode="&#x26;" horiz-adv-x="1363" 
d="M1260 -20l-244 264q-211 -264 -486 -264q-185 0 -304.5 108.5t-119.5 261.5v4q0 70 23.5 130.5t57.5 102.5t91 83t105 66.5t119 58.5q-104 109 -148.5 195t-44.5 167v4q0 53 22 105t61.5 95.5t103 70t139.5 26.5q140 0 228.5 -87t88.5 -202v-4q0 -115 -85 -202t-296 -181
l443 -477q110 156 200 402l39 -13q-92 -252 -213 -418l250 -270zM543 811q206 90 286 169.5t80 184.5v4q0 98 -76 174t-198 76q-127 0 -205 -78.5t-78 -177.5v-4q0 -76 43.5 -159.5t147.5 -188.5zM530 20q131 0 248 66.5t211 185.5l-457 492q-59 -27 -96.5 -46t-87 -48.5
t-80 -59t-60 -68t-43 -86t-13.5 -102.5v-4q0 -135 105.5 -232.5t272.5 -97.5z" />
    <glyph glyph-name="quotesingle" unicode="'" horiz-adv-x="360" 
d="M123 913l72 521h51v-4l-99 -517h-24z" />
    <glyph glyph-name="parenleft" unicode="(" horiz-adv-x="798" 
d="M674 -287q-264 151 -400.5 375.5t-136.5 499.5t136.5 499t400.5 375l20 -32q-250 -141 -380 -359t-130 -483t130 -483t380 -359z" />
    <glyph glyph-name="parenright" unicode=")" horiz-adv-x="798" 
d="M125 -287l-21 33q250 141 380 359t130 483t-130 483t-380 359l21 32q264 -151 400.5 -375t136.5 -499t-136.5 -499.5t-400.5 -375.5z" />
    <glyph glyph-name="asterisk" unicode="*" horiz-adv-x="880" 
d="M418 831l12 287l-242 -155l-24 38l258 134l-258 133l24 39l242 -156l-12 287h45l-12 -287l241 156l25 -39l-258 -133l258 -134l-25 -38l-241 155l12 -287h-45z" />
    <glyph glyph-name="plus" unicode="+" horiz-adv-x="1130" 
d="M545 272v430h-408v37h408v430h41v-430h407v-37h-407v-430h-41z" />
    <glyph glyph-name="comma" unicode="," horiz-adv-x="335" 
d="M129 -166l-14 27q32 14 43.5 47t9.5 92h-37v106h74v-94q0 -85 -17.5 -122.5t-58.5 -55.5z" />
    <glyph glyph-name="hyphen" unicode="-" horiz-adv-x="794" 
d="M143 588v43h508v-43h-508z" />
    <glyph glyph-name="period" unicode="." horiz-adv-x="335" 
d="M131 0v106h74v-106h-74z" />
    <glyph glyph-name="slash" unicode="/" horiz-adv-x="964" 
d="M-37 -262l963 1896h47l-963 -1896h-47z" />
    <glyph glyph-name="zero" unicode="0" horiz-adv-x="1454" 
d="M727 -25q-109 0 -203.5 39t-164 108.5t-119 162.5t-74.5 202.5t-25 227.5v4q0 148 40 281t112.5 235t185 162.5t248.5 60.5q109 0 203.5 -39t164 -108t119 -162t74.5 -202.5t25 -227.5v-4q0 -148 -40 -281t-112.5 -235.5t-185 -163t-248.5 -60.5zM729 16q126 0 229.5 57
t170.5 154t103 222t36 264v4q0 138 -37 263.5t-104.5 223t-171.5 155.5t-230 58t-229.5 -57t-170.5 -153.5t-103 -221.5t-36 -264v-4q0 -110 23 -213t69 -191.5t110 -154.5t152 -104t189 -38z" />
    <glyph glyph-name="one" unicode="1" horiz-adv-x="645" 
d="M354 0v1393l-268 -121l-18 39l292 133h37v-1444h-43z" />
    <glyph glyph-name="two" unicode="2" horiz-adv-x="1161" 
d="M82 0v27l649 628q152 147 204 245.5t52 189.5q0 133 -107.5 228t-271.5 95q-149 0 -261.5 -78t-184.5 -211l-39 23q76 142 199 224.5t288 82.5q185 0 303.5 -104.5t118.5 -255.5v-4q0 -69 -17.5 -126t-80 -144t-176.5 -197l-602 -582h897v-41h-971z" />
    <glyph glyph-name="three" unicode="3" horiz-adv-x="1099" 
d="M535 -25q-161 0 -293.5 69t-221.5 187l37 29q82 -111 206.5 -177.5t273.5 -66.5q113 0 208 45t152 126.5t57 181.5v4q0 123 -68.5 204.5t-184.5 116.5t-279 35h-49l-15 29l557 635h-817v41h877v-33l-553 -631q274 -2 425.5 -100t151.5 -295v-4q0 -113 -63.5 -204.5
t-169.5 -141.5t-231 -50z" />
    <glyph glyph-name="four" unicode="4" horiz-adv-x="1269" 
d="M928 0v375h-844l-12 26l862 1043h37v-1028h235v-41h-235v-375h-43zM135 416h793v958z" />
    <glyph glyph-name="five" unicode="5" horiz-adv-x="1210" 
d="M602 -25q-141 0 -275 66t-214 164l34 31q80 -96 201.5 -158t255.5 -62q197 0 322 114t125 292v4q0 169 -126 276t-313 107q-203 0 -381 -96l-26 14l43 707h764v-41h-723l-37 -623q167 80 364 80q207 0 343.5 -117.5t136.5 -304.5v-4q0 -197 -138 -323t-356 -126z" />
    <glyph glyph-name="six" unicode="6" horiz-adv-x="1282" 
d="M672 -25q-213 0 -359 146q-170 170 -170 551v4q0 226 66 402t195 278t303 102q221 0 401 -166l-29 -32q-170 157 -374 157q-161 0 -279.5 -99t-178 -265.5t-59.5 -376.5v-4q0 -28 5 -180q15 158 152.5 272.5t318.5 114.5q214 0 356.5 -125.5t142.5 -315.5v-4
q0 -122 -64 -227.5t-177.5 -168.5t-249.5 -63zM674 16q184 0 314 125t130 291v4q0 173 -130.5 287.5t-325.5 114.5q-178 0 -308.5 -119t-130.5 -279v-4q0 -170 132.5 -295t318.5 -125z" />
    <glyph glyph-name="seven" unicode="7" horiz-adv-x="1091" 
d="M283 0l704 1393h-881v41h932v-27l-706 -1407h-49z" />
    <glyph glyph-name="eight" unicode="8" horiz-adv-x="1282" 
d="M641 -20q-239 0 -381.5 111.5t-142.5 273.5v4q0 136 106 237t269 133q-146 38 -232 127.5t-86 216.5v4q0 155 134.5 261t332.5 106t332.5 -106t134.5 -261v-4q0 -127 -85.5 -216.5t-231.5 -127.5q163 -35 268.5 -136t105.5 -234v-4q0 -162 -142.5 -273.5t-381.5 -111.5z
M643 760q178 0 299 88.5t121 232.5v4q0 139 -123 233.5t-301 94.5t-299 -92t-121 -231v-5q0 -144 123 -234.5t301 -90.5zM643 20q216 0 346.5 99t130.5 243v5q0 100 -65 181.5t-175 126t-241 44.5t-240 -43.5t-173 -124t-64 -180.5v-4q0 -145 132.5 -246t348.5 -101z" />
    <glyph glyph-name="nine" unicode="9" horiz-adv-x="1282" 
d="M575 -25q-112 0 -221 48t-192 131l31 32q81 -79 181.5 -124.5t203.5 -45.5q161 0 279.5 99.5t177.5 266t59 376.5v4q0 76 -4 174q-15 -164 -152 -278.5t-320 -114.5q-216 0 -357.5 124t-141.5 322v4q0 127 65 234t178 169t248 62q214 0 359 -145q170 -170 170 -551v-4
q0 -226 -66 -402t-195 -278.5t-303 -102.5zM621 584q117 0 218 54t160.5 147t59.5 202v4q0 178 -131.5 302t-319.5 124q-183 0 -313.5 -125.5t-130.5 -296.5v-4q0 -181 130 -294t327 -113z" />
    <glyph glyph-name="colon" unicode=":" horiz-adv-x="344" 
d="M135 918v106h74v-106h-74zM135 0v106h74v-106h-74z" />
    <glyph glyph-name="semicolon" unicode=";" horiz-adv-x="344" 
d="M135 918v106h74v-106h-74zM133 -166l-14 27q32 14 43.5 47t9.5 92h-37v106h74v-94q0 -85 -17.5 -122.5t-58.5 -55.5z" />
    <glyph glyph-name="less" unicode="&#x3c;" horiz-adv-x="1228" 
d="M1059 229l-942 482v20l942 481v-47l-877 -444l877 -445v-47z" />
    <glyph glyph-name="equal" unicode="=" horiz-adv-x="1228" 
d="M190 942v41h848v-41h-848zM190 461v41h848v-41h-848z" />
    <glyph glyph-name="greater" unicode="&#x3e;" horiz-adv-x="1228" 
d="M170 229v47l877 445l-877 444v47l942 -481v-20z" />
    <glyph glyph-name="question" unicode="?" horiz-adv-x="1021" 
d="M436 375l-16 321l6 6q197 14 320.5 109t123.5 252v4q0 147 -108.5 245.5t-278.5 98.5q-123 0 -227.5 -65.5t-169.5 -174.5l-37 25q74 119 184.5 187.5t251.5 68.5q190 0 310 -110t120 -273v-4q0 -90 -37.5 -163.5t-101 -121t-141 -76.5t-164.5 -38l-14 -291h-21zM410 0
v106h73v-106h-73z" />
    <glyph glyph-name="at" unicode="@" horiz-adv-x="1943" 
d="M1001 -334q-181 0 -340.5 63.5t-276.5 175.5t-185 276t-68 356q0 143 41 280.5t118 252.5t180.5 202.5t236.5 136.5t278 49q173 0 328 -64.5t263.5 -172.5t172 -253t63.5 -302q0 -102 -21.5 -187.5t-56 -142t-79 -96t-90 -57t-90.5 -17.5q-58 0 -102.5 21.5t-69 57.5
t-36.5 79t-10 90q-54 -110 -150.5 -179t-207.5 -69q-148 0 -243 91.5t-95 246.5q0 99 35.5 189t94.5 153t136.5 100t159.5 37q119 0 205 -68.5t108 -181.5l37 203l41 -8l-71 -391q-11 -56 -11 -115q0 -101 43.5 -160t135.5 -59q41 0 81.5 16t79.5 52.5t69 89t48.5 131
t18.5 172.5q0 151 -60 290t-164 242t-251.5 164t-313.5 61q-173 0 -325.5 -73t-258 -194t-166.5 -282t-61 -333q0 -184 65 -341.5t176.5 -265.5t264.5 -168.5t326 -60.5q270 0 475 137l22 -33q-212 -141 -500 -141zM899 207q102 0 190.5 62t138.5 161.5t50 208.5
q0 129 -83.5 216t-207.5 87q-155 0 -268 -126.5t-113 -309.5q0 -138 81.5 -218.5t211.5 -80.5z" />
    <glyph glyph-name="A" unicode="A" horiz-adv-x="1570" 
d="M76 0l690 1444h39l690 -1444h-49l-205 430h-913l-205 -430h-47zM348 471h873l-437 913z" />
    <glyph glyph-name="B" unicode="B" horiz-adv-x="1484" 
d="M213 0v1434h588q254 0 377 -123q92 -92 92 -238v-4q0 -130 -76 -220t-201 -118q153 -22 253 -118.5t100 -237.5v-4q0 -177 -134.5 -274t-377.5 -97h-621zM258 745h576q110 0 196.5 34t140.5 108t54 180v4q0 148 -113.5 235t-312.5 87h-541v-648zM258 41h576
q221 0 343.5 86.5t122.5 241.5v4q0 105 -59.5 181.5t-156 113.5t-216.5 37h-610v-664z" />
    <glyph glyph-name="C" unicode="C" horiz-adv-x="1486" 
d="M850 -25q-197 0 -358.5 99.5t-251.5 268.5t-90 370v4q0 200 89.5 369.5t252 270.5t362.5 101q98 0 179 -16.5t146.5 -50.5t114.5 -70t105 -90l-31 -31q-49 47 -94.5 81.5t-108.5 67.5t-142 50.5t-171 17.5q-140 0 -263 -56.5t-209 -151.5t-135.5 -223t-49.5 -267v-4
q0 -140 50 -268.5t136.5 -223.5t209.5 -151t261 -56q303 0 522 234l33 -31q-233 -244 -557 -244z" />
    <glyph glyph-name="D" unicode="D" horiz-adv-x="1585" 
d="M213 0v1434h461q166 0 309 -55.5t242 -151t155 -227t56 -281.5v-4q0 -150 -56 -281.5t-155 -227t-242 -151t-309 -55.5h-461zM258 41h418q155 0 289 52.5t227 142.5t146 214t53 263v4q0 140 -53 264.5t-146.5 215t-228.5 143.5t-291 53h-414v-1352z" />
    <glyph glyph-name="E" unicode="E" horiz-adv-x="1353" 
d="M213 0v1434h1001v-41h-956v-652h868v-41h-868v-659h967v-41h-1012z" />
    <glyph glyph-name="F" unicode="F" horiz-adv-x="1277" 
d="M213 0v1434h991v-41h-946v-666h858v-41h-858v-686h-45z" />
    <glyph glyph-name="G" unicode="G" horiz-adv-x="1595" 
d="M856 -25q-164 0 -299 59t-223 160.5t-136 235t-48 283.5v4q0 144 50 277.5t139.5 236.5t224.5 165t294 62q157 0 270.5 -44.5t227.5 -139.5l-29 -35q-109 89 -217.5 133.5t-253.5 44.5q-118 0 -223 -38.5t-184 -105.5t-137 -155t-87.5 -190.5t-29.5 -208.5v-4
q0 -140 45.5 -266.5t128.5 -223t210 -153t279 -56.5q276 0 510 197v461h-528v45h573v-522q-110 -100 -252 -161t-305 -61z" />
    <glyph glyph-name="H" unicode="H" horiz-adv-x="1540" 
d="M213 0v1434h45v-691h1024v691h45v-1434h-45v702h-1024v-702h-45z" />
    <glyph glyph-name="I" unicode="I" horiz-adv-x="499" 
d="M227 0v1434h45v-1434h-45z" />
    <glyph glyph-name="J" unicode="J" horiz-adv-x="1093" 
d="M471 -23q-136 0 -246 76.5t-164 210.5l41 19q50 -125 148.5 -195t224.5 -70q80 0 147.5 28.5t120 84t82 147t29.5 209.5v947h45v-940q0 -267 -135 -402q-115 -115 -293 -115z" />
    <glyph glyph-name="K" unicode="K" horiz-adv-x="1443" 
d="M213 0v1434h45v-969l991 969h64l-623 -605l645 -829h-55l-621 799l-401 -391v-408h-45z" />
    <glyph glyph-name="L" unicode="L" horiz-adv-x="1196" 
d="M213 0v1434h45v-1393h881v-41h-926z" />
    <glyph glyph-name="M" unicode="M" horiz-adv-x="1759" 
d="M213 0v1434h43l625 -889l624 889h41v-1434h-45v1358l-620 -885h-2l-621 885v-1358h-45z" />
    <glyph glyph-name="N" unicode="N" horiz-adv-x="1597" 
d="M213 0v1434h39l1089 -1360v1360h43v-1434h-38l-1090 1360v-1360h-43z" />
    <glyph glyph-name="O" unicode="O" horiz-adv-x="1724" 
d="M862 -25q-127 0 -240 39t-198.5 109t-147.5 162.5t-94 202.5t-32 227v4q0 146 51 280t141.5 236t226 162.5t293.5 60.5t293.5 -60.5t226.5 -162.5t142 -236t51 -280v-4q0 -146 -51 -280.5t-142 -236.5t-226.5 -162.5t-293.5 -60.5zM864 16q146 0 272.5 57t211.5 153
t133.5 222.5t48.5 264.5v4q0 137 -49.5 264t-135.5 223.5t-212.5 154.5t-272.5 58t-272 -57t-211.5 -152.5t-133.5 -222t-48 -264.5v-4q0 -137 49 -264t135 -224t212.5 -155t272.5 -58z" />
    <glyph glyph-name="P" unicode="P" horiz-adv-x="1368" 
d="M211 0v1434h504q261 0 406 -114t145 -316v-5q0 -208 -148.5 -322t-410.5 -114h-451v-563h-45zM256 604h451q241 0 377.5 102.5t136.5 290.5v4q0 184 -134.5 288t-375.5 104h-455v-789z" />
    <glyph glyph-name="Q" unicode="Q" horiz-adv-x="1724" 
d="M1556 -18l-208 182q-202 -189 -486 -189q-127 0 -240 39t-198.5 109t-147.5 162.5t-94 202.5t-32 227v4q0 146 51 280t141.5 236t226 162.5t293.5 60.5t293.5 -60.5t226.5 -162.5t142 -236t51 -280v-4q0 -147 -51.5 -282t-145.5 -238l207 -181zM864 16q264 0 451 177
l-318 276l29 33l320 -279q89 96 136.5 223.5t47.5 266.5v4q0 137 -49.5 264t-135.5 223.5t-212.5 154.5t-272.5 58t-272 -57t-211.5 -152.5t-133.5 -222t-48 -264.5v-4q0 -137 49 -264t135 -224t212.5 -155t272.5 -58z" />
    <glyph glyph-name="R" unicode="R" horiz-adv-x="1482" 
d="M213 0v1434h586q275 0 411 -136q103 -103 103 -266v-4q0 -178 -128.5 -283.5t-340.5 -117.5l477 -627h-55l-475 625h-7h-526v-625h-45zM258 666h518q240 0 366 100t126 260v4q0 170 -125 266.5t-348 96.5h-537v-727z" />
    <glyph glyph-name="S" unicode="S" horiz-adv-x="1314" 
d="M688 -20q-324 0 -567 229l33 33q228 -222 538 -222q198 0 319.5 95.5t121.5 242.5v4q0 91 -41.5 152t-144.5 108.5t-283 84.5q-266 54 -378 140t-112 236v4q0 153 133.5 260t333.5 107q272 0 487 -164l-28 -37q-212 160 -463 160q-183 0 -300.5 -96t-117.5 -227v-5
q0 -133 101.5 -208.5t361.5 -128.5q274 -56 385 -144.5t111 -238.5v-5q0 -164 -134 -272t-356 -108z" />
    <glyph glyph-name="T" unicode="T" horiz-adv-x="1191" 
d="M573 0v1393h-518v41h1082v-41h-519v-1393h-45z" />
    <glyph glyph-name="U" unicode="U" horiz-adv-x="1540" 
d="M770 -23q-129 0 -235 41.5t-183 122t-119.5 206.5t-42.5 288v799h46v-799q0 -301 145.5 -459t390.5 -158q248 0 390.5 157t142.5 458v801h45v-799q0 -320 -156.5 -489t-423.5 -169z" />
    <glyph glyph-name="V" unicode="V" horiz-adv-x="1488" 
d="M727 -10l-651 1444h49l620 -1381l621 1381h47l-651 -1444h-35z" />
    <glyph glyph-name="W" unicode="W" horiz-adv-x="2082" 
d="M567 -10l-477 1444h47l451 -1373l436 1377h35l438 -1379l451 1375h45l-477 -1444h-39l-437 1364l-434 -1364h-39z" />
    <glyph glyph-name="X" unicode="X" horiz-adv-x="1376" 
d="M76 0l586 729l-566 705h54l538 -674l537 674h55l-565 -705l585 -729h-53l-559 700l-557 -700h-55z" />
    <glyph glyph-name="Y" unicode="Y" horiz-adv-x="1345" 
d="M651 0v600l-606 834h53l578 -795l571 795h53l-604 -834v-600h-45z" />
    <glyph glyph-name="Z" unicode="Z" horiz-adv-x="1388" 
d="M135 0v27l1039 1366h-1004v41h1067v-27l-1038 -1366h1032v-41h-1096z" />
    <glyph glyph-name="bracketleft" unicode="[" horiz-adv-x="839" 
d="M201 -266v1700h538v-35h-493v-1630h493v-35h-538z" />
    <glyph glyph-name="backslash" unicode="\" horiz-adv-x="964" 
d="M954 -262l-962 1896h47l962 -1896h-47z" />
    <glyph glyph-name="bracketright" unicode="]" horiz-adv-x="839" 
d="M100 -266v35h494v1630h-494v35h539v-1700h-539z" />
    <glyph glyph-name="asciicircum" unicode="^" 
d="M180 1012l320 428h24l320 -428h-35l-297 374l-297 -374h-35z" />
    <glyph glyph-name="underscore" unicode="_" horiz-adv-x="1126" 
d="M-4 -305v41h1134v-41h-1134z" />
    <glyph glyph-name="grave" unicode="`" 
d="M571 1219l-219 229l51 25l197 -254h-29z" />
    <glyph glyph-name="a" unicode="a" horiz-adv-x="1159" 
d="M487 -25q-160 0 -271.5 81.5t-111.5 226.5v4q0 104 61.5 179t163.5 110.5t232 35.5q211 0 385 -63v86q0 182 -101.5 273t-285.5 91q-161 0 -340 -86l-16 37q185 90 358 90q216 0 328 -112q100 -100 100 -291v-637h-43v242q-17 -47 -54 -92.5t-92.5 -85.5t-137 -64.5
t-175.5 -24.5zM489 16q198 0 327.5 108.5t129.5 250.5v131q-173 65 -383 65q-118 0 -210 -30.5t-147.5 -95.5t-55.5 -156v-4q0 -87 48 -149t123 -91t168 -29z" />
    <glyph glyph-name="b" unicode="b" horiz-adv-x="1341" 
d="M707 -25q-174 0 -301 95.5t-173 246.5v-317h-43v1495h43v-788q46 151 173 246.5t301 95.5q146 0 263.5 -71.5t183 -194t65.5 -269.5v-4q0 -147 -65.5 -269.5t-183 -194t-263.5 -71.5zM705 16q207 0 338 141.5t131 350.5v4q0 136 -58 248.5t-166 180t-245 67.5
q-136 0 -245.5 -68t-169 -180.5t-59.5 -245.5v-4q0 -132 60 -244.5t170 -181t244 -68.5z" />
    <glyph glyph-name="c" unicode="c" horiz-adv-x="1148" 
d="M641 -25q-108 0 -205 43t-166.5 115t-110 170.5t-40.5 206.5v4q0 144 68.5 267t189.5 195.5t266 72.5q131 0 227.5 -50t182.5 -141l-31 -29q-168 179 -381 179q-133 0 -243 -67.5t-172 -180t-62 -244.5v-4q0 -98 37.5 -189.5t101 -158.5t153 -107.5t187.5 -40.5
q216 0 385 191l31 -29q-172 -203 -418 -203z" />
    <glyph glyph-name="d" unicode="d" horiz-adv-x="1341" 
d="M635 -25q-146 0 -263.5 71.5t-183 194t-65.5 269.5v4q0 147 65.5 269.5t183 194t263.5 71.5q174 0 300.5 -95.5t172.5 -246.5v788h43v-1495h-43v317q-46 -151 -172.5 -246.5t-300.5 -95.5zM637 16q102 0 191 40t150.5 107t96.5 157.5t35 189.5v4q0 132 -60 244.5
t-169.5 181t-243.5 68.5q-207 0 -338 -141.5t-131 -350.5v-4q0 -136 58 -248.5t166 -180t245 -67.5z" />
    <glyph glyph-name="e" unicode="e" horiz-adv-x="1193" 
d="M631 -25q-105 0 -198.5 38t-163 106.5t-110 170t-40.5 222.5v4q0 228 139 380.5t352 152.5q117 0 209.5 -48t148 -127t84.5 -173t29 -193v-8h-915q6 -217 140 -350.5t327 -133.5q113 0 213.5 58t165.5 149l35 -24q-70 -101 -178.5 -162.5t-237.5 -61.5zM166 539h868
q-2 71 -21 138.5t-55 127.5t-85.5 105t-117.5 71.5t-147 26.5q-188 0 -311 -133t-131 -336z" />
    <glyph glyph-name="f" unicode="f" horiz-adv-x="665" 
d="M262 0v985h-162v39h162v147q0 175 84 259q71 71 195 71q79 0 143 -28v-43q-61 28 -143 28q-112 0 -174 -73.5t-62 -221.5v-139h375v-39h-375v-985h-43z" />
    <glyph glyph-name="g" unicode="g" horiz-adv-x="1323" 
d="M635 -334q-251 0 -465 158l27 35q199 -152 438 -152q209 0 332 118t123 339v209q-58 -133 -182.5 -215t-278.5 -82q-137 0 -253.5 65t-184.5 176t-68 242v4q0 131 68 243t184.5 177.5t253.5 65.5q154 0 278.5 -82t182.5 -215v272h43v-868q0 -227 -132 -359
q-131 -131 -366 -131zM631 117q126 0 232.5 59.5t168.5 161t62 219.5v4q0 118 -62 221t-169 164.5t-232 61.5q-192 0 -326.5 -130t-134.5 -313v-4q0 -183 134.5 -313.5t326.5 -130.5z" />
    <glyph glyph-name="h" unicode="h" horiz-adv-x="1245" 
d="M190 0v1495h43v-752q10 39 31.5 79.5t57.5 82t81.5 73t108.5 51.5t133 20q204 0 317 -126.5t113 -342.5v-580h-43v575q0 198 -101 315.5t-290 117.5q-170 0 -289 -128.5t-119 -312.5v-567h-43z" />
    <glyph glyph-name="i" unicode="i" horiz-adv-x="448" 
d="M193 1317v117h63v-117h-63zM203 0v1024h43v-1024h-43z" />
    <glyph glyph-name="j" unicode="j" horiz-adv-x="452" 
d="M197 1317v117h63v-117h-63zM47 -342q-41 0 -74 8v41q27 -8 74 -8q72 0 116 52t44 147v1126h43v-1122q0 -120 -54.5 -182t-148.5 -62z" />
    <glyph glyph-name="k" unicode="k" horiz-adv-x="1112" 
d="M190 0v1495h43v-1137l711 666h57l-487 -453l520 -571h-53l-494 545l-254 -236v-309h-43z" />
    <glyph glyph-name="l" unicode="l" horiz-adv-x="448" 
d="M203 0v1495h43v-1495h-43z" />
    <glyph glyph-name="m" unicode="m" horiz-adv-x="1890" 
d="M190 0v1024h43v-262q26 108 126 197.5t229 89.5q157 0 250 -85t123 -221q32 120 134 213t232 93q175 0 280 -115t105 -328v-606h-43v602q0 195 -94 300.5t-250 105.5q-136 0 -244 -120t-108 -290v-598h-43v602q0 195 -94 300.5t-250 105.5q-136 0 -244.5 -120
t-108.5 -290v-598h-43z" />
    <glyph glyph-name="n" unicode="n" horiz-adv-x="1245" 
d="M190 0v1024h43v-281q10 39 31.5 79.5t57.5 82t81.5 73t108.5 51.5t133 20q204 0 317 -126.5t113 -342.5v-580h-43v575q0 198 -101 315.5t-290 117.5q-170 0 -289 -128.5t-119 -312.5v-567h-43z" />
    <glyph glyph-name="o" unicode="o" horiz-adv-x="1298" 
d="M649 -25q-155 0 -278 73.5t-188.5 194.5t-65.5 265v4q0 107 38.5 205t106.5 171.5t168.5 117t218.5 43.5q117 0 217.5 -43t169 -116t107.5 -170t39 -204v-4q0 -144 -65 -266t-188.5 -196.5t-279.5 -74.5zM651 16q141 0 253 67.5t172.5 180t60.5 246.5v4q0 133 -62 246
t-175 180.5t-253 67.5q-141 0 -253 -67.5t-172 -180t-60 -246.5v-4q0 -133 61.5 -246t174.5 -180.5t253 -67.5z" />
    <glyph glyph-name="p" unicode="p" horiz-adv-x="1341" 
d="M190 -328v1352h43v-317q46 151 173 246.5t301 95.5q146 0 263.5 -71.5t183 -194t65.5 -269.5v-4q0 -147 -65.5 -269.5t-183 -194t-263.5 -71.5q-174 0 -301 95.5t-173 246.5v-645h-43zM705 16q207 0 338 141.5t131 350.5v4q0 136 -58 248.5t-166 180t-245 67.5
q-136 0 -245.5 -68t-169 -180.5t-59.5 -245.5v-4q0 -132 60 -244.5t170 -181t244 -68.5z" />
    <glyph glyph-name="q" unicode="q" horiz-adv-x="1341" 
d="M1108 -328v645q-46 -151 -172.5 -246.5t-300.5 -95.5q-146 0 -263.5 71.5t-183 194t-65.5 269.5v4q0 147 65.5 269.5t183 194t263.5 71.5q174 0 300.5 -95.5t172.5 -246.5v317h43v-1352h-43zM637 16q102 0 191 40t150.5 107t96.5 157.5t35 189.5v4q0 132 -60 244.5
t-169.5 181t-243.5 68.5q-207 0 -338 -141.5t-131 -350.5v-4q0 -136 58 -248.5t166 -180t245 -67.5z" />
    <glyph glyph-name="r" unicode="r" horiz-adv-x="686" 
d="M190 0v1024h43v-328q18 66 54.5 127.5t88.5 113t124.5 82.5t154.5 30v-41h-10q-74 0 -141 -30.5t-115 -81t-84 -113t-54 -128t-18 -125.5v-530h-43z" />
    <glyph glyph-name="s" unicode="s" horiz-adv-x="1003" 
d="M504 -18q-108 0 -218 40t-196 111l27 35q84 -70 186 -107.5t203 -37.5q139 0 231 64t92 163v4q0 23 -4 44t-15.5 38.5t-21 32t-30.5 28.5t-33.5 23.5t-41.5 21t-42.5 17.5t-48.5 16.5t-47.5 14t-50.5 14.5q-73 21 -118.5 36t-96.5 39t-79 50t-46.5 64t-18.5 85v4
q0 110 99.5 185t257.5 75q192 0 356 -114l-25 -37q-153 110 -331 110q-137 0 -224.5 -62.5t-87.5 -154.5v-4q0 -39 18 -71.5t44.5 -55t73 -43.5t87.5 -34.5t103 -30.5q71 -19 117.5 -34.5t98.5 -40t82 -52.5t50 -69.5t20 -92.5v-4q0 -119 -104.5 -194.5t-265.5 -75.5z" />
    <glyph glyph-name="t" unicode="t" horiz-adv-x="763" 
d="M508 -18q-127 0 -194.5 73t-67.5 207v723h-162v39h162v354h43v-354h379v-39h-379v-719q0 -117 55.5 -180t163.5 -63q85 0 156 36v-45q-68 -32 -156 -32z" />
    <glyph glyph-name="u" unicode="u" horiz-adv-x="1245" 
d="M600 -25q-204 0 -317 126.5t-113 342.5v580h43v-575q0 -198 101 -315.5t290 -117.5q170 0 289 128.5t119 312.5v567h43v-1024h-43v281q-10 -39 -31.5 -79.5t-57.5 -82t-81.5 -73t-108.5 -51.5t-133 -20z" />
    <glyph glyph-name="v" unicode="v" horiz-adv-x="1146" 
d="M559 -8l-475 1032h47l444 -979l443 979h45l-471 -1032h-33z" />
    <glyph glyph-name="w" unicode="w" horiz-adv-x="1646" 
d="M457 -8l-359 1032h45l330 -967l334 973h35l332 -973l331 967h43l-358 -1032h-35l-332 975l-331 -975h-35z" />
    <glyph glyph-name="x" unicode="x" horiz-adv-x="1085" 
d="M70 0l448 520l-432 504h51l406 -477l407 477h49l-432 -504l449 -520h-51l-422 494l-424 -494h-49z" />
    <glyph glyph-name="y" unicode="y" horiz-adv-x="1165" 
d="M283 -334q-104 0 -193 55l21 35q85 -51 172 -51q93 0 154 58t143 237l-494 1024h47l467 -979l440 979h45l-475 -1044q-59 -130 -109.5 -198.5t-98.5 -92t-119 -23.5z" />
    <glyph glyph-name="z" unicode="z" horiz-adv-x="997" 
d="M74 0v25l780 960h-756v39h820v-25l-781 -960h785v-39h-848z" />
    <glyph glyph-name="braceleft" unicode="{" horiz-adv-x="901" 
d="M760 -289q-59 12 -107 26.5t-84.5 30t-64.5 36.5t-47 40.5t-32 47.5t-20.5 51t-11.5 58.5t-5 62.5t-1 69v164q0 55 -14 102t-43 85.5t-80 60.5t-119 22h-41v41h41q68 0 119 22t80 61t43 86t14 102v163q0 42 1 69t5 62.5t11.5 58.5t20.5 51t32 47.5t47 40.5t64.5 36.5
t84.5 30t107 26.5l8 -39q-68 -13 -120 -31t-87.5 -37t-60 -47.5t-38 -53.5t-20.5 -64t-8.5 -70t-1.5 -80v-163q0 -122 -56.5 -200.5t-170.5 -90.5q114 -12 170.5 -90.5t56.5 -200.5v-164q0 -49 1.5 -80t8.5 -70t20.5 -64t38 -53.5t60 -47.5t87.5 -37t120 -31z" />
    <glyph glyph-name="bar" unicode="|" horiz-adv-x="526" 
d="M244 -262v1896h39v-1896h-39z" />
    <glyph glyph-name="braceright" unicode="}" horiz-adv-x="901" 
d="M141 -289l-8 39q68 13 120 31t87.5 37t60 47.5t38 53.5t20.5 64t8.5 70t1.5 80v164q0 122 56.5 200.5t170.5 90.5q-114 12 -170.5 90.5t-56.5 200.5v163q0 49 -1.5 80t-8.5 70t-20.5 64t-38 53.5t-60 47.5t-87.5 37t-120 31l8 39q59 -12 107 -26.5t84.5 -30t64.5 -36.5
t47 -40.5t32 -47.5t20.5 -51t11.5 -58.5t5 -62.5t1 -69v-163q0 -55 14 -102t43 -86t80 -61t119 -22h41v-41h-41q-68 0 -119 -22t-80 -60.5t-43 -85.5t-14 -102v-164q0 -42 -1 -69t-5 -62.5t-11.5 -58.5t-20.5 -51t-32 -47.5t-47 -40.5t-64.5 -36.5t-84.5 -30t-107 -26.5z
" />
    <glyph glyph-name="asciitilde" unicode="~" horiz-adv-x="901" 
d="M199 518l-27 6q34 164 147 164q35 0 87.5 -30t101.5 -59.5t78 -29.5q39 0 66.5 28.5t49.5 100.5l27 -6q-34 -164 -147 -164q-35 0 -87.5 30t-101.5 59.5t-78 29.5q-39 0 -66.5 -28.5t-49.5 -100.5z" />
    <glyph glyph-name="nbspace" unicode="&#xa0;" horiz-adv-x="573" 
 />
    <glyph glyph-name="exclamdown" unicode="&#xa1;" horiz-adv-x="397" 
d="M162 1327v107h74v-107h-74zM176 0v221l12 838h21l12 -838v-221h-45z" />
    <glyph glyph-name="cent" unicode="&#xa2;" horiz-adv-x="1148" 
d="M475 -12l43 221q-167 46 -273 190t-106 326v4q0 142 69.5 265t191 196.5t264.5 73.5q36 0 59 -2l37 184h41l-37 -191q167 -33 309 -182l-29 -29q-139 143 -288 173l-193 -979q70 -9 92 -9q233 0 396 189l28 -25q-171 -203 -426 -203q-37 0 -98 11l-41 -213h-39zM526 248
l191 975q-18 2 -55 2q-132 0 -243 -68t-174 -181.5t-63 -244.5v-4q0 -165 96 -299t248 -180z" />
    <glyph glyph-name="sterling" unicode="&#xa3;" horiz-adv-x="1226" 
d="M133 0v27l186 16v610h-186v41h186v240q0 263 138 401q119 119 299 119q124 0 223 -61t168 -166l-37 -25q-140 211 -356 211q-161 0 -267 -106q-56 -56 -89 -150.5t-33 -216.5v-246h618v-41h-618v-612h768v-41h-1000z" />
    <glyph glyph-name="currency" unicode="&#xa4;" horiz-adv-x="1474" 
d="M868 -25q-221 0 -376.5 152t-200.5 405h-191v41h185q-9 101 -9 140v4q0 85 15 164h-191v41h197q52 238 203 387t354 149q171 0 287.5 -76t201.5 -215l-38 -22q-79 130 -186 201t-265 71q-188 0 -327 -138t-187 -357h639v-41h-647q-15 -99 -15 -164v-4q0 -39 9 -140h653
v-41h-645q45 -233 188.5 -374.5t345.5 -141.5q149 0 255.5 76.5t187.5 212.5l37 -20q-88 -146 -203.5 -228t-276.5 -82z" />
    <glyph glyph-name="yen" unicode="&#xa5;" horiz-adv-x="1263" 
d="M610 0v246h-422v41h422v307h-422v41h398q1 0 -134.5 199.5t-271.5 399.5l-135 200h57l533 -795l530 795h54l-541 -799h397v-41h-420v-307h420v-41h-420v-246h-45z" />
    <glyph glyph-name="section" unicode="&#xa7;" horiz-adv-x="1294" 
d="M645 -20q-117 0 -232 41t-182 98l29 35q64 -54 172.5 -94t212.5 -40q150 0 239 56t89 145v4q0 97 -105.5 155.5t-324.5 98.5q-197 36 -295 100t-98 162v4q0 100 106 167t289 57q-266 68 -266 239v4q0 102 100.5 172t271.5 70q117 0 232 -41t182 -98l-29 -35
q-64 54 -172.5 93.5t-212.5 39.5q-150 0 -238.5 -56t-88.5 -145v-4q0 -97 105.5 -155.5t324.5 -98.5q197 -36 295 -100t98 -162v-4q0 -100 -106 -166.5t-289 -56.5q266 -68 266 -240v-4q0 -102 -101 -171.5t-272 -69.5zM791 498q130 0 220.5 53t90.5 133v4q0 81 -85.5 134.5
t-271.5 88.5q-131 25 -239 25q-130 0 -220.5 -53t-90.5 -133v-5q0 -81 85.5 -134.5t270.5 -88.5q125 -24 240 -24z" />
    <glyph glyph-name="dieresis" unicode="&#xa8;" 
d="M616 1257v107h74v-107h-74zM334 1257v107h74v-107h-74z" />
    <glyph glyph-name="copyright" unicode="&#xa9;" horiz-adv-x="1699" 
d="M850 -25q-151 0 -288.5 58.5t-236.5 158t-157.5 236.5t-58.5 287v4q0 150 58.5 287t157.5 236t236.5 157.5t288.5 58.5t288.5 -58.5t236.5 -157.5t157.5 -236t58.5 -287v-4q0 -150 -58.5 -287t-157.5 -236.5t-236.5 -158t-288.5 -58.5zM850 10q143 0 273.5 56t225 151
t150 225t55.5 273v4q0 143 -55.5 273t-150 224.5t-225 150.5t-273.5 56t-273.5 -56t-225 -150.5t-150.5 -224.5t-56 -273v-4q0 -190 94.5 -352.5t257 -257.5t353.5 -95zM864 336q-159 0 -264.5 113.5t-105.5 273.5v4q0 161 106 275t266 114q97 0 163 -32t126 -89l-29 -28
q-112 112 -262 112q-140 0 -234.5 -103.5t-94.5 -246.5q-2 -2 0 -4q0 -143 95.5 -247.5t235.5 -104.5q152 0 264 121l29 -27q-57 -61 -127 -96t-168 -35z" />
    <glyph glyph-name="ordfeminine" unicode="&#xaa;" horiz-adv-x="860" 
d="M387 848q-88 0 -151.5 45t-63.5 127v4q0 87 69.5 133.5t182.5 46.5q108 0 203 -30v38q0 95 -54 143t-151 48q-86 0 -182 -47l-15 33q100 49 199 49q120 0 184 -64q56 -56 56 -160v-354h-37v117q-29 -53 -90 -91t-150 -38zM168 651v31h506v-31h-506zM389 883
q101 0 169.5 55t68.5 133v70q-103 30 -205 30q-94 0 -151.5 -38.5t-57.5 -106.5v-4q0 -65 51.5 -102t124.5 -37z" />
    <glyph glyph-name="guillemotleft" unicode="&#xab;" horiz-adv-x="946" 
d="M799 96l-361 420v12l361 420l24 -20l-336 -406l336 -405zM451 96l-361 420v12l361 420l24 -20l-336 -406l336 -405z" />
    <glyph glyph-name="registered" unicode="&#xae;" horiz-adv-x="1699" 
d="M850 -25q-151 0 -288.5 58.5t-236.5 158t-157.5 236.5t-58.5 287v4q0 150 58.5 287t157.5 236t236.5 157.5t288.5 58.5t288.5 -58.5t236.5 -157.5t157.5 -236t58.5 -287v-4q0 -150 -58.5 -287t-157.5 -236.5t-236.5 -158t-288.5 -58.5zM850 10q143 0 273.5 56t225 151
t150 225t55.5 273v4q0 143 -55.5 273t-150 224.5t-225 150.5t-273.5 56t-273.5 -56t-225 -150.5t-150.5 -224.5t-56 -273v-4q0 -190 94.5 -352.5t257 -257.5t353.5 -95zM584 362v750h311q141 0 213 -72q55 -55 55 -137v-4q0 -93 -61 -148t-168 -67l248 -322h-49l-244 318h-8
h-256v-318h-41zM625 717h264q110 0 172.5 48t62.5 132v4q0 82 -62 128t-171 46h-266v-358z" />
    <glyph glyph-name="macron" unicode="&#xaf;" 
d="M236 1272v39h552v-39h-552z" />
    <glyph glyph-name="degree" unicode="&#xb0;" horiz-adv-x="880" 
d="M440 872q-119 0 -206 84t-87 201v4q0 117 87 201t206 84t206 -84t87 -201v-4q0 -117 -87 -201t-206 -84zM440 909q103 0 177.5 73.5t74.5 174.5v4q0 101 -74.5 174.5t-177.5 73.5t-177.5 -73.5t-74.5 -174.5v-4q0 -101 74.5 -174.5t177.5 -73.5z" />
    <glyph glyph-name="plusminus" unicode="&#xb1;" horiz-adv-x="1146" 
d="M575 -25q-161 0 -293.5 70.5t-224.5 192.5l39 26q81 -113 206.5 -180.5t275.5 -67.5q179 0 304.5 99t125.5 260v4q0 112 -62 186.5t-164 107t-241 32.5h-160v40h162q190 0 309 92t119 244v4q0 138 -116.5 235t-293.5 97q-270 0 -438 -252l-37 25q81 122 204 195t273 73
q197 0 325 -108.5t128 -262.5v-4q0 -144 -95 -238.5t-235 -115.5q60 -8 112.5 -25t100 -45.5t81 -66.5t53.5 -92t20 -119v-4q0 -116 -66 -209t-175 -143t-237 -50z" />
    <glyph glyph-name="acute" unicode="&#xb4;" 
d="M424 1219l197 254l51 -25l-219 -229h-29z" />
    <glyph glyph-name="mu" unicode="&#xb5;" horiz-adv-x="1724" 
d="M1571 -207l-320 295q-171 -113 -389 -113q-127 0 -240 39t-198.5 109t-147.5 162.5t-94 202.5t-32 227v4q0 146 51 280t141.5 236t226 162.5t293.5 60.5t293.5 -60.5t226.5 -162.5t142 -236t51 -280v-4q0 -182 -76.5 -342t-214.5 -262l332 -312v-6h-45zM864 16
q146 0 272.5 57t211.5 153t133.5 222.5t48.5 264.5v4q0 137 -49.5 264t-135.5 223.5t-212.5 154.5t-272.5 58t-272 -57t-211.5 -152.5t-133.5 -222t-48 -264.5v-4q0 -137 49 -264t135 -224t212.5 -155t272.5 -58z" />
    <glyph glyph-name="paragraph" unicode="&#xb6;" horiz-adv-x="937" 
d="M680 0v567h-23q-154 0 -278 49.5t-198.5 149t-74.5 233.5v5q0 198 145.5 314t375.5 116h98v-1434h-45z" />
    <glyph glyph-name="periodcentered" unicode="&#xb7;" horiz-adv-x="335" 
d="M131 545v106h74v-106h-74z" />
    <glyph glyph-name="cedilla" unicode="&#xb8;" 
d="M403 -289l-45 23l179 276h28z" />
    <glyph glyph-name="ordmasculine" unicode="&#xba;" horiz-adv-x="862" 
d="M430 848q-128 0 -210.5 86.5t-82.5 208.5v4q0 123 83.5 210t211.5 87t210.5 -86t82.5 -209v-4q0 -122 -83.5 -209.5t-211.5 -87.5zM147 651v31h568v-31h-568zM434 885q108 0 179 75t71 183v4q0 108 -73 184t-181 76q-109 0 -180.5 -75.5t-71.5 -182.5v-4
q0 -108 73.5 -184t182.5 -76z" />
    <glyph glyph-name="guillemotright" unicode="&#xbb;" horiz-adv-x="946" 
d="M496 96l-25 21l336 405l-336 406l25 20l360 -420v-12zM147 96l-24 21l336 405l-336 406l24 20l361 -420v-12z" />
    <glyph glyph-name="questiondown" unicode="&#xbf;" horiz-adv-x="1021" 
d="M539 1327v107h73v-107h-73zM537 -18q-190 0 -310.5 110t-120.5 273v4q0 90 37.5 163.5t101 121t141.5 76.5t165 38l14 291h21l16 -322l-6 -6q-197 -14 -320.5 -108.5t-123.5 -251.5v-4q0 -147 108.5 -245.5t278.5 -98.5q123 0 227.5 65t169.5 174l37 -24
q-74 -119 -184.5 -187.5t-251.5 -68.5z" />
    <glyph glyph-name="Agrave" unicode="&#xc0;" horiz-adv-x="1570" 
d="M76 0l690 1444h39l690 -1444h-49l-205 430h-913l-205 -430h-47zM348 471h873l-437 913zM786 1567l-219 229l51 25l197 -254h-29z" />
    <glyph glyph-name="Aacute" unicode="&#xc1;" horiz-adv-x="1570" 
d="M76 0l690 1444h39l690 -1444h-49l-205 430h-913l-205 -430h-47zM348 471h873l-437 913zM762 1567l196 254l52 -25l-219 -229h-29z" />
    <glyph glyph-name="Acircumflex" unicode="&#xc2;" horiz-adv-x="1570" 
d="M76 0l690 1444h39l690 -1444h-49l-205 430h-913l-205 -430h-47zM348 471h873l-437 913zM555 1567l217 250h25l217 -250h-35l-195 196l-194 -196h-35z" />
    <glyph glyph-name="Atilde" unicode="&#xc3;" horiz-adv-x="1570" 
d="M76 0l690 1444h39l690 -1444h-49l-205 430h-913l-205 -430h-47zM348 471h873l-437 913zM532 1579l-26 6q34 164 147 164q35 0 87.5 -30t101.5 -59.5t78 -29.5q39 0 66.5 28.5t49.5 100.5l27 -6q-34 -164 -148 -164q-35 0 -87 30t-101 59.5t-78 29.5q-39 0 -67 -28.5
t-50 -100.5z" />
    <glyph glyph-name="Adieresis" unicode="&#xc4;" horiz-adv-x="1570" 
d="M76 0l690 1444h39l690 -1444h-49l-205 430h-913l-205 -430h-47zM348 471h873l-437 913zM891 1606v106h74v-106h-74zM608 1606v106h74v-106h-74z" />
    <glyph glyph-name="Aring" unicode="&#xc5;" horiz-adv-x="1570" 
d="M76 0l659 1380q-63 18 -106 68.5t-43 114.5v4q0 76 59.5 132t138.5 56t139 -56t60 -132v-4q0 -64 -42.5 -115t-104.5 -66l659 -1382h-49l-205 430h-913l-205 -430h-47zM784 1407q66 0 114 46t48 110v4q0 64 -48 109.5t-114 45.5t-113.5 -45.5t-47.5 -109.5v-4
q0 -64 47.5 -110t113.5 -46zM348 471h873l-437 913z" />
    <glyph glyph-name="AE" unicode="&#xc6;" horiz-adv-x="2076" 
d="M0 0l920 1434h1017v-41h-925v-652h837v-41h-837v-659h936v-41h-981v430h-643l-275 -430h-49zM350 471h617v922h-25z" />
    <glyph glyph-name="Ccedilla" unicode="&#xc7;" horiz-adv-x="1486" 
d="M719 -289l-45 23l155 241q-193 5 -349 105.5t-243 267.5t-87 365v4q0 200 89.5 369.5t252 270.5t362.5 101q98 0 179 -16.5t146.5 -50.5t114.5 -70t105 -90l-31 -31q-49 47 -94.5 81.5t-108.5 67.5t-142 50.5t-171 17.5q-140 0 -263 -56.5t-209 -151.5t-135.5 -223
t-49.5 -267v-4q0 -140 50 -268.5t136.5 -223.5t209.5 -151t261 -56q303 0 522 234l33 -31q-228 -239 -545 -244z" />
    <glyph glyph-name="Egrave" unicode="&#xc8;" horiz-adv-x="1353" 
d="M213 0v1434h1001v-41h-956v-652h868v-41h-868v-659h967v-41h-1012zM752 1567l-220 229l52 25l196 -254h-28z" />
    <glyph glyph-name="Eacute" unicode="&#xc9;" horiz-adv-x="1353" 
d="M213 0v1434h1001v-41h-956v-652h868v-41h-868v-659h967v-41h-1012zM649 1567l197 254l51 -25l-219 -229h-29z" />
    <glyph glyph-name="Ecircumflex" unicode="&#xca;" horiz-adv-x="1353" 
d="M213 0v1434h1001v-41h-956v-652h868v-41h-868v-659h967v-41h-1012zM485 1567l217 250h25l217 -250h-35l-194 196l-195 -196h-35z" />
    <glyph glyph-name="Edieresis" unicode="&#xcb;" horiz-adv-x="1353" 
d="M213 0v1434h1001v-41h-956v-652h868v-41h-868v-659h967v-41h-1012zM819 1606v106h74v-106h-74zM537 1606v106h73v-106h-73z" />
    <glyph glyph-name="Igrave" unicode="&#xcc;" horiz-adv-x="499" 
d="M227 0v1434h45v-1434h-45zM254 1567l-219 229l51 25l197 -254h-29z" />
    <glyph glyph-name="Iacute" unicode="&#xcd;" horiz-adv-x="499" 
d="M227 0v1434h45v-1434h-45zM221 1567l197 254l51 -25l-219 -229h-29z" />
    <glyph glyph-name="Icircumflex" unicode="&#xce;" horiz-adv-x="499" 
d="M227 0v1434h45v-1434h-45zM20 1567l218 250h24l217 -250h-35l-194 196l-195 -196h-35z" />
    <glyph glyph-name="Idieresis" unicode="&#xcf;" horiz-adv-x="499" 
d="M227 0v1434h45v-1434h-45zM354 1606v106h74v-106h-74zM72 1606v106h73v-106h-73z" />
    <glyph glyph-name="Eth" unicode="&#xd0;" horiz-adv-x="1646" 
d="M274 0v700h-153v41h153v693h461q166 0 309 -55.5t242 -151t155 -227t56 -281.5v-4q0 -150 -56 -281.5t-155 -227t-242 -151t-309 -55.5h-461zM319 41h418q155 0 289 52.5t227 142.5t146 214t53 263v4q0 140 -53 264.5t-146.5 215t-228.5 143.5t-291 53h-414v-652h517v-41
h-517v-659z" />
    <glyph glyph-name="Ntilde" unicode="&#xd1;" horiz-adv-x="1597" 
d="M213 0v1434h39l1089 -1360v1360h43v-1434h-38l-1090 1360v-1360h-43zM547 1579l-27 6q34 164 148 164q35 0 87 -30t101 -59.5t78 -29.5q39 0 67 28.5t50 100.5l26 -6q-34 -164 -147 -164q-35 0 -87 30t-101 59.5t-78 29.5q-39 0 -67 -28.5t-50 -100.5z" />
    <glyph glyph-name="Ograve" unicode="&#xd2;" horiz-adv-x="1724" 
d="M862 -25q-127 0 -240 39t-198.5 109t-147.5 162.5t-94 202.5t-32 227v4q0 146 51 280t141.5 236t226 162.5t293.5 60.5t293.5 -60.5t226.5 -162.5t142 -236t51 -280v-4q0 -146 -51 -280.5t-142 -236.5t-226.5 -162.5t-293.5 -60.5zM864 16q146 0 272.5 57t211.5 153
t133.5 222.5t48.5 264.5v4q0 137 -49.5 264t-135.5 223.5t-212.5 154.5t-272.5 58t-272 -57t-211.5 -152.5t-133.5 -222t-48 -264.5v-4q0 -137 49 -264t135 -224t212.5 -155t272.5 -58zM850 1567l-219 229l51 25l197 -254h-29z" />
    <glyph glyph-name="Oacute" unicode="&#xd3;" horiz-adv-x="1724" 
d="M862 -25q-127 0 -240 39t-198.5 109t-147.5 162.5t-94 202.5t-32 227v4q0 146 51 280t141.5 236t226 162.5t293.5 60.5t293.5 -60.5t226.5 -162.5t142 -236t51 -280v-4q0 -146 -51 -280.5t-142 -236.5t-226.5 -162.5t-293.5 -60.5zM864 16q146 0 272.5 57t211.5 153
t133.5 222.5t48.5 264.5v4q0 137 -49.5 264t-135.5 223.5t-212.5 154.5t-272.5 58t-272 -57t-211.5 -152.5t-133.5 -222t-48 -264.5v-4q0 -137 49 -264t135 -224t212.5 -155t272.5 -58zM848 1567l196 254l52 -25l-219 -229h-29z" />
    <glyph glyph-name="Ocircumflex" unicode="&#xd4;" horiz-adv-x="1724" 
d="M862 -25q-127 0 -240 39t-198.5 109t-147.5 162.5t-94 202.5t-32 227v4q0 146 51 280t141.5 236t226 162.5t293.5 60.5t293.5 -60.5t226.5 -162.5t142 -236t51 -280v-4q0 -146 -51 -280.5t-142 -236.5t-226.5 -162.5t-293.5 -60.5zM864 16q146 0 272.5 57t211.5 153
t133.5 222.5t48.5 264.5v4q0 137 -49.5 264t-135.5 223.5t-212.5 154.5t-272.5 58t-272 -57t-211.5 -152.5t-133.5 -222t-48 -264.5v-4q0 -137 49 -264t135 -224t212.5 -155t272.5 -58zM633 1567l217 250h24l218 -250h-35l-195 196l-194 -196h-35z" />
    <glyph glyph-name="Otilde" unicode="&#xd5;" horiz-adv-x="1724" 
d="M862 -25q-127 0 -240 39t-198.5 109t-147.5 162.5t-94 202.5t-32 227v4q0 146 51 280t141.5 236t226 162.5t293.5 60.5t293.5 -60.5t226.5 -162.5t142 -236t51 -280v-4q0 -146 -51 -280.5t-142 -236.5t-226.5 -162.5t-293.5 -60.5zM864 16q146 0 272.5 57t211.5 153
t133.5 222.5t48.5 264.5v4q0 137 -49.5 264t-135.5 223.5t-212.5 154.5t-272.5 58t-272 -57t-211.5 -152.5t-133.5 -222t-48 -264.5v-4q0 -137 49 -264t135 -224t212.5 -155t272.5 -58zM610 1579l-26 6q34 164 147 164q35 0 87 -30t101 -59.5t78 -29.5q39 0 67 28.5
t50 100.5l27 -6q-34 -164 -148 -164q-35 0 -87 30t-101 59.5t-78 29.5q-39 0 -67 -28.5t-50 -100.5z" />
    <glyph glyph-name="Odieresis" unicode="&#xd6;" horiz-adv-x="1724" 
d="M862 -25q-127 0 -240 39t-198.5 109t-147.5 162.5t-94 202.5t-32 227v4q0 146 51 280t141.5 236t226 162.5t293.5 60.5t293.5 -60.5t226.5 -162.5t142 -236t51 -280v-4q0 -146 -51 -280.5t-142 -236.5t-226.5 -162.5t-293.5 -60.5zM864 16q146 0 272.5 57t211.5 153
t133.5 222.5t48.5 264.5v4q0 137 -49.5 264t-135.5 223.5t-212.5 154.5t-272.5 58t-272 -57t-211.5 -152.5t-133.5 -222t-48 -264.5v-4q0 -137 49 -264t135 -224t212.5 -155t272.5 -58zM969 1606v106h73v-106h-73zM686 1606v106h74v-106h-74z" />
    <glyph glyph-name="Oslash" unicode="&#xd8;" horiz-adv-x="1724" 
d="M862 -25q-286 0 -487 191l-164 -176h-53l190 205q-95 103 -146.5 237.5t-51.5 282.5v4q0 146 51 280t141.5 236t226 162.5t293.5 60.5q288 0 488 -190l163 176h54l-191 -205q96 -103 147.5 -238t51.5 -282v-4q0 -146 -51 -280.5t-142 -236.5t-226.5 -162.5t-293.5 -60.5z
M377 225l944 1012q-183 180 -461 180q-146 0 -272 -57t-211.5 -152.5t-133.5 -222t-48 -264.5v-4q0 -141 47 -269t135 -223zM864 16q146 0 272.5 57t211.5 153t133.5 222.5t48.5 264.5v4q0 140 -47.5 268t-134.5 223l-945 -1011q184 -181 461 -181z" />
    <glyph glyph-name="Ugrave" unicode="&#xd9;" horiz-adv-x="1540" 
d="M770 -23q-129 0 -235 41.5t-183 122t-119.5 206.5t-42.5 288v799h46v-799q0 -301 145.5 -459t390.5 -158q248 0 390.5 157t142.5 458v801h45v-799q0 -320 -156.5 -489t-423.5 -169zM788 1567l-219 229l52 25l196 -254h-29z" />
    <glyph glyph-name="Uacute" unicode="&#xda;" horiz-adv-x="1540" 
d="M770 -23q-129 0 -235 41.5t-183 122t-119.5 206.5t-42.5 288v799h46v-799q0 -301 145.5 -459t390.5 -158q248 0 390.5 157t142.5 458v801h45v-799q0 -320 -156.5 -489t-423.5 -169zM723 1567l197 254l51 -25l-219 -229h-29z" />
    <glyph glyph-name="Ucircumflex" unicode="&#xdb;" horiz-adv-x="1540" 
d="M770 -23q-129 0 -235 41.5t-183 122t-119.5 206.5t-42.5 288v799h46v-799q0 -301 145.5 -459t390.5 -158q248 0 390.5 157t142.5 458v801h45v-799q0 -320 -156.5 -489t-423.5 -169zM541 1567l217 250h24l217 -250h-34l-195 196l-195 -196h-34z" />
    <glyph glyph-name="Udieresis" unicode="&#xdc;" horiz-adv-x="1540" 
d="M770 -23q-129 0 -235 41.5t-183 122t-119.5 206.5t-42.5 288v799h46v-799q0 -301 145.5 -459t390.5 -158q248 0 390.5 157t142.5 458v801h45v-799q0 -320 -156.5 -489t-423.5 -169zM874 1585v107h74v-107h-74zM592 1585v107h74v-107h-74z" />
    <glyph glyph-name="Yacute" unicode="&#xdd;" horiz-adv-x="1345" 
d="M651 0v600l-606 834h53l578 -795l571 795h53l-604 -834v-600h-45zM666 1567l196 254l51 -25l-219 -229h-28z" />
    <glyph glyph-name="Thorn" unicode="&#xde;" horiz-adv-x="1368" 
d="M211 0v1434h45v-277h459q261 0 406 -114t145 -316v-4q0 -208 -148.5 -322t-410.5 -114h-451v-287h-45zM256 328h451q241 0 377.5 102.5t136.5 290.5v4q0 184 -134.5 287.5t-375.5 103.5h-455v-788z" />
    <glyph glyph-name="germandbls" unicode="&#xdf;" horiz-adv-x="1169" 
d="M539 -6v41q209 3 339 98t130 260v4q0 151 -125.5 238.5t-343.5 99.5v39q81 21 147 53t119.5 78t83 109t29.5 137v4q0 125 -95.5 218t-236.5 93q-173 0 -263 -118.5t-90 -313.5v-1034h-43v1038q0 213 103 341t295 128q161 0 268 -103.5t107 -246.5v-4q0 -139 -90 -237.5
t-248 -151.5q193 -24 310.5 -119.5t117.5 -245.5v-4q0 -122 -67.5 -214t-183.5 -139.5t-263 -47.5z" />
    <glyph glyph-name="agrave" unicode="&#xe0;" horiz-adv-x="1159" 
d="M487 -25q-160 0 -271.5 81.5t-111.5 226.5v4q0 104 61.5 179t163.5 110.5t232 35.5q211 0 385 -63v86q0 182 -101.5 273t-285.5 91q-161 0 -340 -86l-16 37q185 90 358 90q216 0 328 -112q100 -100 100 -291v-637h-43v242q-17 -47 -54 -92.5t-92.5 -85.5t-137 -64.5
t-175.5 -24.5zM489 16q198 0 327.5 108.5t129.5 250.5v131q-173 65 -383 65q-118 0 -210 -30.5t-147.5 -95.5t-55.5 -156v-4q0 -87 48 -149t123 -91t168 -29zM571 1219l-219 229l51 25l197 -254h-29z" />
    <glyph glyph-name="aacute" unicode="&#xe1;" horiz-adv-x="1159" 
d="M487 -25q-160 0 -271.5 81.5t-111.5 226.5v4q0 104 61.5 179t163.5 110.5t232 35.5q211 0 385 -63v86q0 182 -101.5 273t-285.5 91q-161 0 -340 -86l-16 37q185 90 358 90q216 0 328 -112q100 -100 100 -291v-637h-43v242q-17 -47 -54 -92.5t-92.5 -85.5t-137 -64.5
t-175.5 -24.5zM489 16q198 0 327.5 108.5t129.5 250.5v131q-173 65 -383 65q-118 0 -210 -30.5t-147.5 -95.5t-55.5 -156v-4q0 -87 48 -149t123 -91t168 -29zM532 1219l197 254l51 -25l-219 -229h-29z" />
    <glyph glyph-name="acircumflex" unicode="&#xe2;" horiz-adv-x="1159" 
d="M487 -25q-160 0 -271.5 81.5t-111.5 226.5v4q0 104 61.5 179t163.5 110.5t232 35.5q211 0 385 -63v86q0 182 -101.5 273t-285.5 91q-161 0 -340 -86l-16 37q185 90 358 90q216 0 328 -112q100 -100 100 -291v-637h-43v242q-17 -47 -54 -92.5t-92.5 -85.5t-137 -64.5
t-175.5 -24.5zM489 16q198 0 327.5 108.5t129.5 250.5v131q-173 65 -383 65q-118 0 -210 -30.5t-147.5 -95.5t-55.5 -156v-4q0 -87 48 -149t123 -91t168 -29zM362 1219l218 249h24l217 -249h-35l-194 196l-195 -196h-35z" />
    <glyph glyph-name="atilde" unicode="&#xe3;" horiz-adv-x="1159" 
d="M487 -25q-160 0 -271.5 81.5t-111.5 226.5v4q0 104 61.5 179t163.5 110.5t232 35.5q211 0 385 -63v86q0 182 -101.5 273t-285.5 91q-161 0 -340 -86l-16 37q185 90 358 90q216 0 328 -112q100 -100 100 -291v-637h-43v242q-17 -47 -54 -92.5t-92.5 -85.5t-137 -64.5
t-175.5 -24.5zM489 16q198 0 327.5 108.5t129.5 250.5v131q-173 65 -383 65q-118 0 -210 -30.5t-147.5 -95.5t-55.5 -156v-4q0 -87 48 -149t123 -91t168 -29zM338 1231l-27 6q34 164 148 164q35 0 87 -30t101 -59.5t78 -29.5q39 0 67 28.5t50 100.5l26 -6
q-34 -164 -147 -164q-35 0 -87 30t-101 59.5t-78 29.5q-39 0 -67 -28.5t-50 -100.5z" />
    <glyph glyph-name="adieresis" unicode="&#xe4;" horiz-adv-x="1159" 
d="M487 -25q-160 0 -271.5 81.5t-111.5 226.5v4q0 104 61.5 179t163.5 110.5t232 35.5q211 0 385 -63v86q0 182 -101.5 273t-285.5 91q-161 0 -340 -86l-16 37q185 90 358 90q216 0 328 -112q100 -100 100 -291v-637h-43v242q-17 -47 -54 -92.5t-92.5 -85.5t-137 -64.5
t-175.5 -24.5zM489 16q198 0 327.5 108.5t129.5 250.5v131q-173 65 -383 65q-118 0 -210 -30.5t-147.5 -95.5t-55.5 -156v-4q0 -87 48 -149t123 -91t168 -29zM694 1257v107h74v-107h-74zM412 1257v107h73v-107h-73z" />
    <glyph glyph-name="aring" unicode="&#xe5;" horiz-adv-x="1159" 
d="M487 -25q-160 0 -271.5 81.5t-111.5 226.5v4q0 104 61.5 179t163.5 110.5t232 35.5q211 0 385 -63v86q0 182 -101.5 273t-285.5 91q-161 0 -340 -86l-16 37q185 90 358 90q216 0 328 -112q100 -100 100 -291v-637h-43v242q-17 -47 -54 -92.5t-92.5 -85.5t-137 -64.5
t-175.5 -24.5zM489 16q198 0 327.5 108.5t129.5 250.5v131q-173 65 -383 65q-118 0 -210 -30.5t-147.5 -95.5t-55.5 -156v-4q0 -87 48 -149t123 -91t168 -29zM584 1217q-79 0 -139 56t-60 132v4q0 76 60 132t139 56t138.5 -56t59.5 -132v-4q0 -76 -59.5 -132t-138.5 -56z
M584 1249q66 0 113.5 46t47.5 110v4q0 64 -47.5 110t-113.5 46t-114 -46t-48 -110v-4q0 -64 48 -110t114 -46z" />
    <glyph glyph-name="ae" unicode="&#xe6;" horiz-adv-x="2007" 
d="M512 -25q-180 0 -294 80.5t-114 227.5v4q0 104 61.5 179t163.5 110.5t232 35.5q210 0 375 -61q10 80 12 88q-4 182 -105.5 271t-283.5 89q-161 0 -340 -86l-16 37q185 90 358 90q175 0 281.5 -76t132.5 -229q55 144 173.5 229t274.5 85q117 0 209.5 -48t148 -127
t84.5 -173t29 -193v-8h-915q6 -215 139.5 -349.5t323.5 -134.5q242 0 385 189l33 -25q-67 -92 -172.5 -148.5t-247.5 -56.5q-140 0 -256.5 68.5t-182.5 189.5q-61 -103 -192.5 -180.5t-296.5 -77.5zM979 539h868q-2 71 -21 138.5t-55 127.5t-85.5 105t-117.5 71.5t-147 26.5
q-189 0 -311.5 -133t-130.5 -336zM514 16q152 0 282 76t187 182q-47 103 -47 236q-166 61 -373 61q-118 0 -210 -30.5t-147.5 -95.5t-55.5 -156v-4q0 -131 100 -200t264 -69z" />
    <glyph glyph-name="ccedilla" unicode="&#xe7;" horiz-adv-x="1148" 
d="M516 -289l-45 23l156 241q-141 4 -258 77t-183.5 194.5t-66.5 263.5v4q0 144 68.5 267t189.5 195.5t266 72.5q131 0 227.5 -50t182.5 -141l-31 -29q-168 179 -381 179q-133 0 -243 -67.5t-172 -180t-62 -244.5v-4q0 -98 37.5 -189.5t101 -158.5t153 -107.5t187.5 -40.5
q216 0 385 191l31 -29q-168 -195 -400 -203z" />
    <glyph glyph-name="egrave" unicode="&#xe8;" horiz-adv-x="1193" 
d="M631 -25q-105 0 -198.5 38t-163 106.5t-110 170t-40.5 222.5v4q0 228 139 380.5t352 152.5q117 0 209.5 -48t148 -127t84.5 -173t29 -193v-8h-915q6 -217 140 -350.5t327 -133.5q113 0 213.5 58t165.5 149l35 -24q-70 -101 -178.5 -162.5t-237.5 -61.5zM166 539h868
q-2 71 -21 138.5t-55 127.5t-85.5 105t-117.5 71.5t-147 26.5q-188 0 -311 -133t-131 -336zM612 1219l-219 229l51 25l197 -254h-29z" />
    <glyph glyph-name="eacute" unicode="&#xe9;" horiz-adv-x="1193" 
d="M631 -25q-105 0 -198.5 38t-163 106.5t-110 170t-40.5 222.5v4q0 228 139 380.5t352 152.5q117 0 209.5 -48t148 -127t84.5 -173t29 -193v-8h-915q6 -217 140 -350.5t327 -133.5q113 0 213.5 58t165.5 149l35 -24q-70 -101 -178.5 -162.5t-237.5 -61.5zM166 539h868
q-2 71 -21 138.5t-55 127.5t-85.5 105t-117.5 71.5t-147 26.5q-188 0 -311 -133t-131 -336zM543 1219l196 254l52 -25l-220 -229h-28z" />
    <glyph glyph-name="ecircumflex" unicode="&#xea;" horiz-adv-x="1193" 
d="M631 -25q-105 0 -198.5 38t-163 106.5t-110 170t-40.5 222.5v4q0 228 139 380.5t352 152.5q117 0 209.5 -48t148 -127t84.5 -173t29 -193v-8h-915q6 -217 140 -350.5t327 -133.5q113 0 213.5 58t165.5 149l35 -24q-70 -101 -178.5 -162.5t-237.5 -61.5zM166 539h868
q-2 71 -21 138.5t-55 127.5t-85.5 105t-117.5 71.5t-147 26.5q-188 0 -311 -133t-131 -336zM377 1219l217 249h24l218 -249h-35l-195 196l-194 -196h-35z" />
    <glyph glyph-name="edieresis" unicode="&#xeb;" horiz-adv-x="1193" 
d="M631 -25q-105 0 -198.5 38t-163 106.5t-110 170t-40.5 222.5v4q0 228 139 380.5t352 152.5q117 0 209.5 -48t148 -127t84.5 -173t29 -193v-8h-915q6 -217 140 -350.5t327 -133.5q113 0 213.5 58t165.5 149l35 -24q-70 -101 -178.5 -162.5t-237.5 -61.5zM166 539h868
q-2 71 -21 138.5t-55 127.5t-85.5 105t-117.5 71.5t-147 26.5q-188 0 -311 -133t-131 -336zM711 1257v107h73v-107h-73zM428 1257v107h74v-107h-74z" />
    <glyph glyph-name="igrave" unicode="&#xec;" horiz-adv-x="448" 
d="M203 0v1024h43v-1024h-43zM223 1219l-219 229l51 25l197 -254h-29z" />
    <glyph glyph-name="iacute" unicode="&#xed;" horiz-adv-x="448" 
d="M203 0v1024h43v-1024h-43zM199 1219l196 254l51 -25l-219 -229h-28z" />
    <glyph glyph-name="icircumflex" unicode="&#xee;" horiz-adv-x="448" 
d="M203 0v1024h43v-1024h-43zM-6 1219l217 249h25l217 -249h-35l-195 196l-194 -196h-35z" />
    <glyph glyph-name="idieresis" unicode="&#xef;" horiz-adv-x="448" 
d="M203 0v1024h43v-1024h-43zM328 1257v107h73v-107h-73zM45 1257v107h74v-107h-74z" />
    <glyph glyph-name="eth" unicode="&#xf0;" horiz-adv-x="1241" 
d="M631 -25q-142 0 -261 67t-187 182t-68 251v4q0 136 67 251.5t183 183t253 67.5q93 0 178 -32.5t144 -82.5l-315 463l-299 -160l-25 35l299 160l-88 131h53l74 -111l219 119l25 -35l-219 -118l344 -506q43 -63 78.5 -157.5t35.5 -176.5v-4q0 -231 -138 -381t-353 -150z
M631 16q190 0 318 138t128 342v4q0 124 -61.5 225t-166.5 158t-231 57q-125 0 -230.5 -62.5t-166.5 -168.5t-61 -230v-4q0 -190 137 -324.5t334 -134.5z" />
    <glyph glyph-name="ntilde" unicode="&#xf1;" horiz-adv-x="1245" 
d="M190 0v1024h43v-281q10 39 31.5 79.5t57.5 82t81.5 73t108.5 51.5t133 20q204 0 317 -126.5t113 -342.5v-580h-43v575q0 198 -101 315.5t-290 117.5q-170 0 -289 -128.5t-119 -312.5v-567h-43zM383 1231l-27 6q34 164 148 164q35 0 87 -30t101 -59.5t78 -29.5
q39 0 67 28.5t50 100.5l26 -6q-34 -164 -147 -164q-35 0 -87 30t-101 59.5t-78 29.5q-39 0 -67 -28.5t-50 -100.5z" />
    <glyph glyph-name="ograve" unicode="&#xf2;" horiz-adv-x="1298" 
d="M649 -25q-155 0 -278 73.5t-188.5 194.5t-65.5 265v4q0 107 38.5 205t106.5 171.5t168.5 117t218.5 43.5q117 0 217.5 -43t169 -116t107.5 -170t39 -204v-4q0 -144 -65 -266t-188.5 -196.5t-279.5 -74.5zM651 16q141 0 253 67.5t172.5 180t60.5 246.5v4q0 133 -62 246
t-175 180.5t-253 67.5q-141 0 -253 -67.5t-172 -180t-60 -246.5v-4q0 -133 61.5 -246t174.5 -180.5t253 -67.5zM647 1219l-219 229l51 25l197 -254h-29z" />
    <glyph glyph-name="oacute" unicode="&#xf3;" horiz-adv-x="1298" 
d="M649 -25q-155 0 -278 73.5t-188.5 194.5t-65.5 265v4q0 107 38.5 205t106.5 171.5t168.5 117t218.5 43.5q117 0 217.5 -43t169 -116t107.5 -170t39 -204v-4q0 -144 -65 -266t-188.5 -196.5t-279.5 -74.5zM651 16q141 0 253 67.5t172.5 180t60.5 246.5v4q0 133 -62 246
t-175 180.5t-253 67.5q-141 0 -253 -67.5t-172 -180t-60 -246.5v-4q0 -133 61.5 -246t174.5 -180.5t253 -67.5zM623 1219l196 254l51 -25l-219 -229h-28z" />
    <glyph glyph-name="ocircumflex" unicode="&#xf4;" horiz-adv-x="1298" 
d="M649 -25q-155 0 -278 73.5t-188.5 194.5t-65.5 265v4q0 107 38.5 205t106.5 171.5t168.5 117t218.5 43.5q117 0 217.5 -43t169 -116t107.5 -170t39 -204v-4q0 -144 -65 -266t-188.5 -196.5t-279.5 -74.5zM651 16q141 0 253 67.5t172.5 180t60.5 246.5v4q0 133 -62 246
t-175 180.5t-253 67.5q-141 0 -253 -67.5t-172 -180t-60 -246.5v-4q0 -133 61.5 -246t174.5 -180.5t253 -67.5zM420 1219l217 249h25l217 -249h-35l-195 196l-194 -196h-35z" />
    <glyph glyph-name="otilde" unicode="&#xf5;" horiz-adv-x="1298" 
d="M649 -25q-155 0 -278 73.5t-188.5 194.5t-65.5 265v4q0 107 38.5 205t106.5 171.5t168.5 117t218.5 43.5q117 0 217.5 -43t169 -116t107.5 -170t39 -204v-4q0 -144 -65 -266t-188.5 -196.5t-279.5 -74.5zM651 16q141 0 253 67.5t172.5 180t60.5 246.5v4q0 133 -62 246
t-175 180.5t-253 67.5q-141 0 -253 -67.5t-172 -180t-60 -246.5v-4q0 -133 61.5 -246t174.5 -180.5t253 -67.5zM397 1231l-26 6q34 164 147 164q35 0 87 -30t101 -59.5t78 -29.5q39 0 67 28.5t50 100.5l27 -6q-34 -164 -148 -164q-35 0 -87 30t-101 59.5t-78 29.5
q-39 0 -67 -28.5t-50 -100.5z" />
    <glyph glyph-name="odieresis" unicode="&#xf6;" horiz-adv-x="1298" 
d="M649 -25q-155 0 -278 73.5t-188.5 194.5t-65.5 265v4q0 107 38.5 205t106.5 171.5t168.5 117t218.5 43.5q117 0 217.5 -43t169 -116t107.5 -170t39 -204v-4q0 -144 -65 -266t-188.5 -196.5t-279.5 -74.5zM651 16q141 0 253 67.5t172.5 180t60.5 246.5v4q0 133 -62 246
t-175 180.5t-253 67.5q-141 0 -253 -67.5t-172 -180t-60 -246.5v-4q0 -133 61.5 -246t174.5 -180.5t253 -67.5zM754 1257v107h73v-107h-73zM471 1257v107h74v-107h-74z" />
    <glyph glyph-name="oslash" unicode="&#xf8;" horiz-adv-x="1298" 
d="M649 -25q-211 0 -358 134l-115 -119h-51l137 145q-69 72 -107 169.5t-38 203.5v4q0 107 38.5 205t106.5 171.5t168.5 117t218.5 43.5q212 0 361 -136l137 146h51l-162 -170q146 -156 146 -373v-4q0 -144 -65 -266t-188.5 -196.5t-279.5 -74.5zM293 166l686 717
q-135 125 -332 125q-141 0 -253 -67.5t-172 -180t-60 -246.5v-4q0 -200 131 -344zM651 16q141 0 253 67.5t172.5 180t60.5 246.5v4q0 97 -34.5 186t-96.5 156l-687 -717q139 -123 332 -123z" />
    <glyph glyph-name="ugrave" unicode="&#xf9;" horiz-adv-x="1245" 
d="M600 -25q-204 0 -317 126.5t-113 342.5v580h43v-575q0 -198 101 -315.5t290 -117.5q170 0 289 128.5t119 312.5v567h43v-1024h-43v281q-10 -39 -31.5 -79.5t-57.5 -82t-81.5 -73t-108.5 -51.5t-133 -20zM672 1219l-219 229l51 25l196 -254h-28z" />
    <glyph glyph-name="uacute" unicode="&#xfa;" horiz-adv-x="1245" 
d="M600 -25q-204 0 -317 126.5t-113 342.5v580h43v-575q0 -198 101 -315.5t290 -117.5q170 0 289 128.5t119 312.5v567h43v-1024h-43v281q-10 -39 -31.5 -79.5t-57.5 -82t-81.5 -73t-108.5 -51.5t-133 -20zM535 1219l196 254l51 -25l-219 -229h-28z" />
    <glyph glyph-name="ucircumflex" unicode="&#xfb;" horiz-adv-x="1245" 
d="M600 -25q-204 0 -317 126.5t-113 342.5v580h43v-575q0 -198 101 -315.5t290 -117.5q170 0 289 128.5t119 312.5v567h43v-1024h-43v281q-10 -39 -31.5 -79.5t-57.5 -82t-81.5 -73t-108.5 -51.5t-133 -20zM383 1219l217 249h25l217 -249h-35l-195 196l-194 -196h-35z" />
    <glyph glyph-name="udieresis" unicode="&#xfc;" horiz-adv-x="1245" 
d="M600 -25q-204 0 -317 126.5t-113 342.5v580h43v-575q0 -198 101 -315.5t290 -117.5q170 0 289 128.5t119 312.5v567h43v-1024h-43v281q-10 -39 -31.5 -79.5t-57.5 -82t-81.5 -73t-108.5 -51.5t-133 -20zM717 1247v107h74v-107h-74zM434 1247v107h74v-107h-74z" />
    <glyph glyph-name="yacute" unicode="&#xfd;" horiz-adv-x="1165" 
d="M283 -334q-104 0 -193 55l21 35q85 -51 172 -51q93 0 154 58t143 237l-494 1024h47l467 -979l440 979h45l-475 -1044q-59 -130 -109.5 -198.5t-98.5 -92t-119 -23.5zM602 1219l197 254l51 -25l-219 -229h-29z" />
    <glyph glyph-name="thorn" unicode="&#xfe;" horiz-adv-x="1341" 
d="M190 -328v1823h43v-788q46 151 173 246.5t301 95.5q146 0 263.5 -71.5t183 -194t65.5 -269.5v-4q0 -147 -65.5 -269.5t-183 -194t-263.5 -71.5q-174 0 -301 95.5t-173 246.5v-645h-43zM705 16q207 0 338 141.5t131 350.5v4q0 136 -58 248.5t-166 180t-245 67.5
q-136 0 -245.5 -68t-169 -180.5t-59.5 -245.5v-4q0 -132 60 -244.5t170 -181t244 -68.5z" />
    <glyph glyph-name="ydieresis" unicode="&#xff;" horiz-adv-x="1165" 
d="M283 -334q-104 0 -193 55l21 35q85 -51 172 -51q93 0 154 58t143 237l-494 1024h47l467 -979l440 979h45l-475 -1044q-59 -130 -109.5 -198.5t-98.5 -92t-119 -23.5zM700 1247v107h74v-107h-74zM418 1247v107h74v-107h-74z" />
    <glyph glyph-name="dotlessi" unicode="&#x131;" horiz-adv-x="448" 
d="M203 0v1024h43v-1024h-43z" />
    <glyph glyph-name="Lslash" unicode="&#x141;" horiz-adv-x="1249" 
d="M266 0v684l-194 -66v41l194 66v709h45v-695l496 166v-41l-496 -166v-657h881v-41h-926z" />
    <glyph glyph-name="lslash" unicode="&#x142;" horiz-adv-x="530" 
d="M244 0v727l-164 -55v41l164 55v727h43v-713l164 56v-41l-164 -56v-741h-43z" />
    <glyph glyph-name="OE" unicode="&#x152;" horiz-adv-x="2385" 
d="M911 0q-166 0 -308.5 55.5t-241.5 151t-155 227t-56 281.5v4q0 150 56 281.5t155 227t241.5 151t308.5 55.5h1336v-41h-926v-652h838v-41h-838v-659h936v-41h-1346zM913 41h363v1352h-367q-155 0 -289 -52.5t-227 -142.5t-145.5 -214t-52.5 -263v-4q0 -140 53 -264.5
t146.5 -215t228 -143.5t290.5 -53z" />
    <glyph glyph-name="oe" unicode="&#x153;" horiz-adv-x="2205" 
d="M649 -25q-155 0 -278 73.5t-188.5 194.5t-65.5 265v4q0 107 38.5 205t106.5 171.5t168.5 117t218.5 43.5q191 0 328.5 -106.5t177.5 -280.5q36 177 164 282t303 105q117 0 209.5 -48t148 -127t84.5 -173t29 -193v-8h-915q6 -215 139 -349.5t323 -134.5q242 0 385 189
l33 -25q-67 -92 -172.5 -148.5t-247.5 -56.5q-176 0 -311 105t-172 289q-39 -176 -176.5 -285t-329.5 -109zM1178 539h868q-2 71 -21 138.5t-55 127.5t-85.5 105t-117.5 71.5t-147 26.5q-188 0 -311 -133t-131 -336zM651 16q141 0 253 67.5t172.5 180t60.5 246.5v4
q0 133 -62 246t-175 180.5t-253 67.5q-141 0 -253 -67.5t-172 -180t-60 -246.5v-4q0 -133 61.5 -246t174.5 -180.5t253 -67.5z" />
    <glyph glyph-name="Scaron" unicode="&#x160;" horiz-adv-x="1314" 
d="M688 -20q-324 0 -567 229l33 33q228 -222 538 -222q198 0 319.5 95.5t121.5 242.5v4q0 91 -41.5 152t-144.5 108.5t-283 84.5q-266 54 -378 140t-112 236v4q0 153 133.5 260t333.5 107q272 0 487 -164l-28 -37q-212 160 -463 160q-183 0 -300.5 -96t-117.5 -227v-5
q0 -133 101.5 -208.5t361.5 -128.5q274 -56 385 -144.5t111 -238.5v-5q0 -164 -134 -272t-356 -108zM659 1567l-217 250h35l195 -197l194 197h35l-217 -250h-25z" />
    <glyph glyph-name="scaron" unicode="&#x161;" horiz-adv-x="1003" 
d="M504 -18q-108 0 -218 40t-196 111l27 35q84 -70 186 -107.5t203 -37.5q139 0 231 64t92 163v4q0 23 -4 44t-15.5 38.5t-21 32t-30.5 28.5t-33.5 23.5t-41.5 21t-42.5 17.5t-48.5 16.5t-47.5 14t-50.5 14.5q-73 21 -118.5 36t-96.5 39t-79 50t-46.5 64t-18.5 85v4
q0 110 99.5 185t257.5 75q192 0 356 -114l-25 -37q-153 110 -331 110q-137 0 -224.5 -62.5t-87.5 -154.5v-4q0 -39 18 -71.5t44.5 -55t73 -43.5t87.5 -34.5t103 -30.5q71 -19 117.5 -34.5t98.5 -40t82 -52.5t50 -69.5t20 -92.5v-4q0 -119 -104.5 -194.5t-265.5 -75.5z
M487 1219l-217 249h35l195 -196l194 196h35l-217 -249h-25z" />
    <glyph glyph-name="Ydieresis" unicode="&#x178;" horiz-adv-x="1345" 
d="M651 0v600l-606 834h53l578 -795l571 795h53l-604 -834v-600h-45zM776 1585v107h74v-107h-74zM494 1585v107h73v-107h-73z" />
    <glyph glyph-name="Zcaron" unicode="&#x17d;" horiz-adv-x="1388" 
d="M135 0v27l1039 1366h-1004v41h1067v-27l-1038 -1366h1032v-41h-1096zM682 1567l-217 250h35l194 -197l195 197h35l-217 -250h-25z" />
    <glyph glyph-name="zcaron" unicode="&#x17e;" horiz-adv-x="997" 
d="M74 0v25l780 960h-756v39h820v-25l-781 -960h785v-39h-848zM502 1219l-217 249h34l195 -196l195 196h34l-217 -249h-24z" />
    <glyph glyph-name="florin" unicode="&#x192;" horiz-adv-x="950" 
d="M125 -8q-41 0 -80 8v41q33 -8 80 -8q78 0 128 52.5t75 184.5l102 549h-227v41h235l56 295q54 287 274 287q44 0 115 -19v-43q-68 19 -113 19q-95 0 -153 -59.5t-85 -204.5l-51 -275h322v-41h-330l-104 -559q-15 -80 -39 -134t-56.5 -82.5t-67.5 -40t-81 -11.5z" />
    <glyph glyph-name="circumflex" unicode="&#x2c6;" 
d="M283 1219l217 249h24l217 -249h-34l-195 196l-195 -196h-34z" />
    <glyph glyph-name="caron" unicode="&#x2c7;" 
d="M500 1219l-217 249h34l195 -196l195 196h34l-217 -249h-24z" />
    <glyph glyph-name="breve" unicode="&#x2d8;" 
d="M512 1217q-112 0 -178.5 70t-77.5 181h33q13 -87 71 -150t152 -63q96 0 153 62t70 151h33q-11 -111 -78 -181t-178 -70z" />
    <glyph glyph-name="dotaccent" unicode="&#x2d9;" 
d="M479 1255v117h68v-117h-68z" />
    <glyph glyph-name="ring" unicode="&#x2da;" 
d="M512 1217q-79 0 -139 56t-60 132v4q0 76 60 132t139 56t139 -56t60 -132v-4q0 -76 -60 -132t-139 -56zM512 1249q66 0 114 46t48 110v4q0 64 -48 110t-114 46t-114 -46t-48 -110v-4q0 -64 48 -110t114 -46z" />
    <glyph glyph-name="ogonek" unicode="&#x2db;" 
d="M729 -326q-157 0 -239 59t-82 165q0 54 28 122h31q-18 -68 -18 -116q0 -92 69 -141t211 -56v-33z" />
    <glyph glyph-name="tilde" unicode="&#x2dc;" 
d="M260 1231l-27 6q34 164 148 164q35 0 87 -30t101 -59.5t78 -29.5q39 0 67 28.5t50 100.5l27 -6q-34 -164 -148 -164q-35 0 -87 30t-101 59.5t-78 29.5q-39 0 -67 -28.5t-50 -100.5z" />
    <glyph glyph-name="hungarumlaut" unicode="&#x2dd;" 
d="M510 1219l197 254l51 -25l-219 -229h-29zM262 1219l197 254l51 -25l-219 -229h-29z" />
    <glyph glyph-name="Omega" unicode="&#x3a9;" horiz-adv-x="1331" 
d="M928 0v985h-162v39h162v147q0 175 84 259q71 71 194 71q80 0 144 -28v-43q-61 28 -144 28q-112 0 -173.5 -73.5t-61.5 -221.5v-139h375v-39h-375v-985h-43zM262 0v985h-162v39h162v147q0 175 84 259q71 71 195 71q79 0 143 -28v-43q-61 28 -143 28q-112 0 -174 -73.5
t-62 -221.5v-139h375v-39h-375v-985h-43z" />
    <glyph glyph-name="pi" unicode="&#x3c0;" horiz-adv-x="1699" 
d="M850 -25q-151 0 -288.5 58.5t-236.5 158t-157.5 236.5t-58.5 287v4q0 150 58.5 287t157.5 236t236.5 157.5t288.5 58.5t288.5 -58.5t236.5 -157.5t157.5 -236t58.5 -287v-4q0 -150 -58.5 -287t-157.5 -236.5t-236.5 -158t-288.5 -58.5zM850 10q143 0 273.5 56t225 151
t150 225t55.5 273v4q0 143 -55.5 273t-150 224.5t-225 150.5t-273.5 56t-273.5 -56t-225 -150.5t-150.5 -224.5t-56 -273v-4q0 -190 94.5 -352.5t257 -257.5t353.5 -95zM633 338v749h268q131 0 208 -60t77 -165v-4q0 -111 -81.5 -173t-211.5 -62h-221v-285h-39zM672 659h221
q116 0 185 52.5t69 142.5v4q0 91 -67 142t-181 51h-227v-392z" />
    <glyph glyph-name="endash" unicode="&#x2013;" horiz-adv-x="1101" 
d="M143 588v41h815v-41h-815z" />
    <glyph glyph-name="emdash" unicode="&#x2014;" horiz-adv-x="1830" 
d="M143 588v41h1545v-41h-1545z" />
    <glyph glyph-name="quoteleft" unicode="&#x2018;" horiz-adv-x="335" 
d="M131 1167v95q0 85 17.5 122.5t58.5 55.5l14 -27q-32 -14 -43.5 -47t-9.5 -92h37v-107h-74z" />
    <glyph glyph-name="quoteright" unicode="&#x2019;" horiz-adv-x="335" 
d="M129 1161l-14 27q32 14 43.5 47t9.5 92h-37v107h74v-95q0 -85 -17.5 -122.5t-58.5 -55.5z" />
    <glyph glyph-name="quotesinglbase" unicode="&#x201a;" horiz-adv-x="335" 
d="M129 -166l-14 27q32 14 43.5 47t9.5 92h-37v106h74v-94q0 -85 -17.5 -122.5t-58.5 -55.5z" />
    <glyph glyph-name="quotedblleft" unicode="&#x201c;" horiz-adv-x="520" 
d="M315 1167v95q0 85 17.5 122.5t58.5 55.5l15 -27q-32 -14 -44 -47t-10 -92h37v-107h-74zM131 1167v95q0 85 17.5 122.5t58.5 55.5l14 -27q-32 -14 -43.5 -47t-9.5 -92h37v-107h-74z" />
    <glyph glyph-name="quotedblright" unicode="&#x201d;" horiz-adv-x="520" 
d="M313 1161l-14 27q32 14 43.5 47t9.5 92h-37v107h74v-95q0 -85 -17.5 -122.5t-58.5 -55.5zM129 1161l-14 27q32 14 43.5 47t9.5 92h-37v107h74v-95q0 -85 -17.5 -122.5t-58.5 -55.5z" />
    <glyph glyph-name="quotedblbase" unicode="&#x201e;" horiz-adv-x="520" 
d="M313 -166l-14 27q32 14 43.5 47t9.5 92h-37v106h74v-94q0 -85 -17.5 -122.5t-58.5 -55.5zM129 -166l-14 27q32 14 43.5 47t9.5 92h-37v106h74v-94q0 -85 -17.5 -122.5t-58.5 -55.5z" />
    <glyph glyph-name="dagger" unicode="&#x2020;" horiz-adv-x="794" 
d="M373 487l12 609l-256 -13v45l256 -12l-10 318h45l-10 -318l256 12v-45l-256 13l12 -609h-49z" />
    <glyph glyph-name="daggerdbl" unicode="&#x2021;" horiz-adv-x="794" 
d="M375 0l10 317l-256 -12v45l256 -12l-10 379l10 379l-256 -13v45l256 -12l-10 318h45l-10 -318l256 12v-45l-256 13l10 -379l-10 -379l256 12v-45l-256 12l10 -317h-45z" />
    <glyph glyph-name="bullet" unicode="&#x2022;" horiz-adv-x="880" 
d="M442 508q-89 0 -153 62.5t-64 150.5v4q0 88 64 150.5t153 62.5t153 -62.5t64 -150.5v-4q0 -88 -64 -150.5t-153 -62.5z" />
    <glyph glyph-name="ellipsis" unicode="&#x2026;" horiz-adv-x="991" 
d="M786 0v106h74v-106h-74zM459 0v106h73v-106h-73zM131 0v106h74v-106h-74z" />
    <glyph glyph-name="perthousand" unicode="&#x2030;" horiz-adv-x="2385" 
d="M428 713q-139 0 -228 107.5t-89 258.5v4q0 97 39 180.5t112.5 135t165.5 51.5q140 0 228.5 -108.5t88.5 -258.5v-4q0 -151 -88 -258.5t-229 -107.5zM264 0l1053 1434h45l-1053 -1434h-45zM1958 -16q-139 0 -228.5 108t-89.5 258v4q0 149 89.5 258t228.5 109
q140 0 228.5 -108.5t88.5 -258.5v-4q0 -151 -88 -258.5t-229 -107.5zM1198 -16q-139 0 -228 107.5t-89 258.5v4q0 97 39 180.5t112.5 135t165.5 51.5q140 0 229 -108.5t89 -258.5v-4q0 -151 -88.5 -258.5t-229.5 -107.5zM430 752q122 0 196 95.5t74 229.5v4
q0 133 -76.5 231.5t-197.5 98.5q-120 0 -195 -96.5t-75 -229.5v-4q0 -134 76.5 -231.5t197.5 -97.5zM1960 23q122 0 196 95.5t74 229.5v4q0 133 -76.5 231.5t-197.5 98.5q-120 0 -195 -96.5t-75 -229.5v-4q0 -134 76.5 -231.5t197.5 -97.5zM1200 23q122 0 196 95.5t74 229.5
v4q0 133 -76.5 231.5t-197.5 98.5q-120 0 -195 -96.5t-75 -229.5v-4q0 -134 76.5 -231.5t197.5 -97.5z" />
    <glyph glyph-name="guilsinglleft" unicode="&#x2039;" horiz-adv-x="598" 
d="M451 96l-361 420v12l361 420l24 -20l-336 -406l336 -405z" />
    <glyph glyph-name="guilsinglright" unicode="&#x203a;" horiz-adv-x="598" 
d="M147 96l-24 21l336 405l-336 406l24 20l361 -420v-12z" />
    <glyph glyph-name="fraction" unicode="&#x2044;" horiz-adv-x="825" 
d="M-92 -201l962 1755h48l-963 -1755h-47z" />
    <glyph glyph-name="trademark" unicode="&#x2122;" horiz-adv-x="1343" 
d="M655 803v631h29l264 -381l266 381h29v-631h-31v571l-264 -375h-2l-260 375v-571h-31zM260 803v600h-225v31h481v-31h-225v-600h-31z" />
    <glyph glyph-name="radical" unicode="&#x221a;" horiz-adv-x="1779" 
d="M928 0v985h-162v39h162v147q0 175 84 259q71 71 194 71q80 0 144 -28v-43q-61 28 -144 28q-112 0 -173.5 -73.5t-61.5 -221.5v-139h375v-39h-375v-985h-43zM262 0v985h-162v39h162v147q0 175 84 259q71 71 195 71q79 0 143 -28v-43q-61 28 -143 28q-112 0 -174 -73.5
t-62 -221.5v-139h375v-39h-375v-985h-43zM1534 0v1495h43v-1495h-43z" />
    <glyph glyph-name="approxequal" unicode="&#x2248;" horiz-adv-x="1779" 
d="M1524 1317v117h63v-117h-63zM928 0v985h-162v39h162v147q0 175 84 259q71 71 194 71q80 0 144 -28v-43q-61 28 -144 28q-112 0 -173.5 -73.5t-61.5 -221.5v-139h375v-39h-375v-985h-43zM262 0v985h-162v39h162v147q0 175 84 259q71 71 195 71q79 0 143 -28v-43
q-61 28 -143 28q-112 0 -174 -73.5t-62 -221.5v-139h375v-39h-375v-985h-43zM1534 0v1024h43v-1024h-43z" />
    <glyph glyph-name="apple" unicode="&#xf8ff;" horiz-adv-x="1980" 
d="M1778 0h-1571v1536h1571v-1536zM1759 -213h-12l-6 41l-21 -43h-4l-20 43l-6 -41h-13l13 70h2l26 -54l27 54h2zM1651 -178q0 -15 -10 -26t-25 -11t-25 10.5t-10 24.5q0 16 10 26.5t27 10.5q13 0 23 -10.5t10 -24.5zM1552 -197l-2 -12q-6 -6 -20 -6q-17 0 -27 10t-10 25
t11 26t26 11q11 0 22 -7l-4 -10q-6 6 -18 6q-9 0 -17 -7t-8 -17q0 -13 8 -20t19 -7q8 0 20 8zM1438 -145l-27 -39v-29h-12v29l-29 39l12 2l23 -31l18 29h15zM1343 -213h-12v31h-33v-31h-12v68h12v-27h33v27h12v-68zM1253 -168q0 -25 -34 -25v-20h-13v68q47 5 47 -23z
M1180 -213h-13l-8 16h-29l-6 -16h-12l31 70h4zM1094 -213h-15l-16 23h-10v-23h-13v68q47 5 47 -21q0 -13 -14 -20zM1006 -207q-12 -8 -27 -8t-26 10t-11 25t11 26t28 11q11 0 25 -9l-5 -10q-8 8 -22 8q-11 0 -18 -7t-7 -19q0 -10 8 -17.5t19 -7.5q4 0 12 4v15h-18v10h31v-31
zM915 -178q0 -15 -9.5 -26t-24.5 -11t-25 10.5t-10 24.5q0 16 10 26.5t27 10.5q13 0 22.5 -10.5t9.5 -24.5zM819 -168q0 -25 -35 -25v-20h-12v68q47 5 47 -23zM745 -145l-26 -39v-29h-12v29l-29 39l12 2l23 -31l18 29h14zM662 -145v-11h-25v-57h-12v57h-25v11h62zM547 -145
l-25 -70h-2l-22 47l-21 -47h-2l-24 70l12 2l14 -47l21 47h2l20 -47l15 45h12zM432 -145l-24 -70h-2l-23 47l-21 -47h-2l-24 70l12 2l14 -47l21 47h2l21 -47l14 45h12zM317 -145l-24 -70h-2l-23 47l-20 -47h-2l-25 70l12 2l15 -47l20 47h2l21 -47l14 45h12zM1466 -207
q0 -8 -8 -8t-8 8t8 8t8 -8zM582 -207q0 -8 -9 -8q-8 0 -8 8t8 8q9 0 9 -8zM1145 1405q0 17 -2 25q-6 -3 -35 -3q-28 0 -37 3l-2 -25h4q9 18 21 18q6 0 6 -6v-47q0 -5 -2.5 -7.5t-5.5 -2.5h-2v-4h34v4h-2q-3 -1 -5.5 2t-2.5 8v47q0 6 6 6t11.5 -4.5t7.5 -8.5l2 -5h4z
M1032 1356v4q-12 -2 -12 10v43q0 5 3 7.5t6 2.5h3v4h-37v-2v-2q11 2 11 -10v-18h-35v18q0 5 2.5 7.5t4.5 2.5h3v2v2h-35v-4l2 1q3 0 5.5 -3t2.5 -8v-43l-10 -10v-4h35v4q-10 0 -10 10v21h35v-21q0 -5 -3 -7.5t-5 -2.5h-3v-4h37zM899 1360h-3q-2 -1 -4.5 2t-2.5 8v43
q0 5 2.5 7.5t4.5 2.5h3v4h-59l-4 -20l4 -2q6 16 18 16h8q8 0 8 -6v-20h-8q-5 0 -8 2.5t-4 4.5v3h-4v-27h4q0 13 12 13h8v-23q0 -6 -8 -6h-8q-6 0 -11 4.5t-7 9.5l-2 4l-4 -2l4 -22h61v4zM1694 1266v12h-1403v-12h1403zM1425 1106q0 31 -23 54.5t-52 23.5q-17 0 -32 -11.5
t-15 -33.5q0 -32 22.5 -55t52.5 -23q17 0 32 11.5t15 33.5zM1206 1100q0 26 -28 35q10 7 10 18t-11 21t-32 10q-12 0 -19.5 -7t-7.5 -16q0 -12 10 -12q9 0 9 6q0 4 -3.5 6.5t-3.5 5.5q0 11 15 11q20 0 20 -25q0 -8 -4 -12q-33 4 -33 -13q0 -4 5.5 -8t11.5 -4q12 0 22 10
q13 -10 13 -30q0 -13 -7 -21t-18 -8q-10 0 -17.5 5t-7.5 13q0 7 7 7q1 0 4 -2.5t6 -2.5q8 0 8 11q0 10 -14 10q-7 0 -13 -6.5t-6 -14.5q0 -11 10 -18.5t23 -7.5q25 0 38 11.5t13 27.5zM604 1100q0 25 -29 35q11 7 11 18t-11 21t-32 10q-12 0 -19.5 -7t-7.5 -16q0 -12 10 -12
q9 0 9 6q0 4 -3.5 6.5t-3.5 5.5q0 11 15 11q20 0 20 -25q0 -8 -4 -12q-33 4 -33 -13q0 -4 5.5 -8t11.5 -4q12 0 22 10q13 -10 13 -30q0 -13 -7 -21t-18 -8q-10 0 -17.5 5t-7.5 13q0 7 7 7q1 0 4 -2.5t6 -2.5q8 0 8 11q0 10 -14 10q-7 0 -13 -6.5t-6 -14.5q0 -11 10 -18.5
t23 -7.5q25 0 38 11.5t13 27.5zM1679 1069q-16 -2 -20 16l-14 72q-2 8 1.5 12.5t7.5 4.5h5l-2 6h-58l3 -6q14 1 18 -17l6 -31h-49l-6 31q-2 8 1.5 12.5t7.5 4.5h5l-2 6h-59l2 -6q16 1 20 -17l15 -72q2 -8 -2 -12t-9 -4h-4l2 -6h60l-2 6q-17 -2 -21 16l-6 33h49l6 -33
q2 -8 -1.5 -12t-8.5 -4h-4l2 -6h59zM1020 1063l-2 6q-17 -2 -21 16l-14 72q-2 8 1.5 12.5t7.5 4.5h5l-2 6h-92v-35h8q0 3 0.5 7.5t7 11.5t19.5 7h8q10 0 12 -12l7 -33h-9q-8 0 -14 5t-8 9l-2 5h-6l10 -47h6q-2 22 16 22h9l6 -35q2 -8 -2 -12t-9 -4h-4l3 -6h59zM414 1069
q-17 -2 -21 16l-14 72q-2 8 1.5 12.5t7.5 4.5h5l-2 6h-55q-41 0 -41 -31q0 -12 11.5 -20.5t27.5 -10.5l-19 -33q-4 -8 -11 -12t-12 -4h-5l2 -6h39l24 47q3 6 10 6l7 -31q2 -8 -2 -12t-9 -4h-4l2 -6h60zM819 1067q0 5 -7 11t-19 7q-6 4 -9 21t-5 34t-13 30.5t-33 13.5
q-10 0 -18 -7t-8 -14q0 -10 10 -10q8 0 8 12q0 13 10 13q11 0 14.5 -16t8.5 -40t20 -37q-16 0 -29 -13t-18 -13q-10 0 -10 8q0 3 2 5.5t2 4.5q0 10 -10 10t-10 -14q0 -9 9.5 -16.5t20.5 -7.5q20 0 30.5 13t20.5 13q7 -14 25 -14q8 0 8 6zM1694 973v12h-1403v-12h1403z
M1694 774v127h-301v-127h73v57h23v-133h-29v-67h166v67h-29v133h23v-57h74zM1327 831v70h-166v-70h23l-31 -47l-31 47h21v70h-127v-70h24l76 -94v-39h-29v-67h166v67h-30v41l75 92h29zM938 631v67h-29v133h29v70h-197q-43 0 -69.5 -23.5t-26.5 -58.5q0 -36 26 -59t70 -23h62
v-39h-31v-67h166zM580 631v67h-29v133h29v70h-289v-127h84v57h67v-40h-49v-50h49v-43h-67v58h-84v-125h289zM1694 555v12h-1403v-12h1403zM1491 393q0 31 -23.5 54.5t-52.5 23.5q-17 0 -32 -11.5t-15 -33.5q0 -32 23 -55t53 -23q17 0 32 11.5t15 33.5zM416 444
q-15 27 -37 27q-32 0 -29 -47q-14 47 -43 47q-10 0 -17 -7t-7 -18l6 -2q0 13 16 13q33 0 49 -68q3 -17 0.5 -23.5t-7.5 -7.5h-5l2 -8h57l-2 8q-14 -4 -20 19q-10 33 -10 51q0 27 18 27q10 0 25 -15zM1686 350l-3 6q-16 -1 -20 17l-14 71q-2 8 1.5 12t7.5 4l5 1l-2 6h-92v-35
h8q0 3 0.5 7.5t7 12t19.5 7.5h8q9 0 12 -13l6 -32h-8q-8 0 -14 4.5t-8 9.5l-3 4h-6l11 -47h6q-2 23 16 23h8l6 -35q2 -8 -1.5 -12.5t-8.5 -4.5h-4l2 -6h60zM1272 461l-2 6h-60l2 -6q17 1 21 -19l10 -43q6 -20 2 -30.5t-24 -10.5q-30 0 -41 45l-9 39q-2 10 2 15t9 5l4 -1v6
h-49l2 -6q18 1 22 -19l8 -39q4 -21 18.5 -38t39.5 -17q22 0 32 8.5t9 19t-2 21.5l-11 45q-3 10 1.5 15t9.5 5zM1069 356q-12 1 -18 21l-15 65q-2 9 2.5 13.5t9.5 4.5l5 1l-2 6h-29l-59 -86l-11 61q-2 8 2 13t8 5l5 1l-2 6h-43l2 -6q14 -1 18 -19l16 -92l7 -2l61 90l12 -61
q2 -10 -1 -15.5t-7 -5.5h-4l2 -6h43zM848 350l-2 8q-15 -4 -21 19l-16 63q-6 18 16 21l-2 6h-61q-21 0 -36 -11.5t-15 -33.5q0 -31 21.5 -51.5t49.5 -20.5h66zM627 356q-17 -1 -21 17l-14 71q-2 8 1.5 12t8.5 4l4 1l-2 6h-55q-41 0 -41 -31q0 -12 11.5 -20t27.5 -10l-19 -33
q-4 -8 -11 -12.5t-12 -4.5h-5l2 -6h39l24 47q3 6 10 6l7 -30q2 -8 -2 -12.5t-8 -4.5h-5l2 -6h60zM1694 260v12h-1403v-12h1403zM1421 94v4q-12 3 -12 11v41q0 3 3 6t6 4l3 2v4h-20l-49 -53v37q0 4 3 7t6 4l3 1v4h-31v-4q13 -2 13 -12v-58h6l51 58v-41q0 -4 -2.5 -6.5
t-4.5 -3.5l-3 -1v-4h28zM1296 98h-2.5t-4.5 3t-3 8v43q0 5 2.5 7.5t5.5 2.5h2v4h-59l-4 -21l4 -2q6 17 18 17h9q8 0 8 -6v-21h-8q-5 0 -8.5 2.5t-3.5 4.5l-1 3h-4v-26h4q1 12 13 12h8v-23q0 -6 -8 -6h-9q-6 0 -11 5t-7 9l-2 5l-4 -2l4 -23h61v4zM1194 166h-31v-4q1 0 2 -0.5
t3 -3t-1 -6.5l-18 -39l-10 20l8 17q2 4 5 7t5 4l2 1v4h-53l2 -4q6 0 14 -12l6 -11l-14 -26l-16 37q-2 5 -1 7.5t3 3.5l2 1v4h-27v-4q8 -2 12 -12l27 -56h2q2 -2 2 0l17 33l18 -33h2l25 56q3 5 6.5 8t5.5 4h2v4zM983 162v4h-31v-4l2 -10l-12 -19l-12 19q-2 5 -1 7t4 3h3v4
h-31v-4q11 0 17 -10l16 -25v-16q0 -5 -2.5 -8.5t-5.5 -4.5h-2v-4h35v4q-11 1 -11 13v16l17 25q2 3 4 5t3.5 3t3 1.5t2.5 0.5h1zM870 131q0 16 -11 26.5t-30 10.5t-30 -10.5t-11 -26.5t11 -27.5t30 -11.5t30 11.5t11 27.5zM745 94v4q-10 1 -10 11v41q0 5 2.5 8t4.5 4h3v4h-36
q-12 0 -19.5 -5.5t-7.5 -13.5q0 -11 18 -18l-14 -20q-4 -4 -8 -7t-6 -4h-2v-4h22l15 25q6 8 14 8v-18q0 -4 -2.5 -7t-4.5 -4h-3v-4h34zM633 94v4q-12 3 -12 13v41l12 10v4h-37v-4q12 0 12 -10v-19q-4 0 -8 4l-16 17q-3 3 -2.5 5t2.5 3h2v4h-29v-4q10 -2 16 -8l21 -19
l-27 -26l-14 -11v-4h35v4q-1 0 -2.5 0.5t-4 3t2.5 7.5l16 16q4 4 8 4v-18q0 -5 -3 -8.5t-6 -4.5h-3v-4h37zM1241 -170q0 17 -22 14v-26q22 0 22 12zM1075 -168q0 16 -22 12v-24q22 -2 22 12zM807 -170q0 17 -23 14v-26q23 0 23 12zM1155 -188l-10 24l-10 -24h20zM1638 -180
q0 26 -22 26q-9 0 -16 -7t-7 -17q0 -12 7 -19.5t16 -7.5t15.5 7.5t6.5 17.5zM903 -180q0 26 -22 26q-9 0 -16 -7t-7 -17q0 -12 7 -19.5t16 -7.5t15.5 7.5t6.5 17.5zM360 1122h-10q-16 0 -23.5 10t-7.5 21q0 18 17 18q16 0 18 -10zM1159 1133q-6 -9 -14 -9t-8 4q0 7 8 7
q10 0 14 -2zM557 1133q-6 -9 -14 -9t-8 4q0 7 8 7q10 0 14 -2zM1401 1096q0 -27 -23 -27q-19 0 -35 24t-16 54q0 29 23 29q19 0 35 -24t16 -56zM803 786h-23q-26 0 -26 23q0 22 26 22h23v-45zM573 410h-10q-16 0 -23.5 9.5t-7.5 20.5q0 19 17 19q15 0 18 -10zM1466 383
q0 -27 -22 -27q-19 0 -35 24t-16 54q0 29 22 29q19 0 35 -24t16 -56zM805 373q0 -15 -8 -15h-11q-22 0 -37.5 20t-15.5 46q0 35 29 35h12q8 -2 12 -15zM1133 162q9 0 0 -19q-11 19 0 19zM721 131h-6q-17 0 -17 16q0 13 15 13q8 0 8 -8v-21zM854 131q0 -35 -25 -35
q-24 0 -24 35q0 33 24 33q25 0 25 -33z" />
    <glyph glyph-name="fi" unicode="&#xfb01;" horiz-adv-x="1114" 
d="M858 1317v117h64v-117h-64zM262 0v985h-162v39h162v147q0 175 84 259q71 71 195 71q79 0 143 -28v-43q-61 28 -143 28q-112 0 -174 -73.5t-62 -221.5v-139h375v-39h-375v-985h-43zM868 0v1024h43v-1024h-43z" />
    <glyph glyph-name="fl" unicode="&#xfb02;" horiz-adv-x="1114" 
d="M262 0v985h-162v39h162v147q0 175 84 259q71 71 195 71q79 0 143 -28v-43q-61 28 -143 28q-112 0 -174 -73.5t-62 -221.5v-139h375v-39h-375v-985h-43zM868 0v1495h43v-1495h-43z" />
    <glyph glyph-name="NUL" horiz-adv-x="0" 
 />
    </font>
</defs>
</svg>
